Классический форум-трекер
canvas not supported
Нас вместе: 4 095 210

Путь в «Сатурн» / Конец «Сатурна» / Бой после победы (1967, 1972) DVDRip [H.264] [Трилогия]


 
 
RSS
Начать новую тему   Ответить на тему    Торрент-трекер NNM-Club -> Коллекции / *логии -> Отечественное кино (коллекции / *логии)
Автор Сообщение
almikl ®
Куратор Детского.
Модератор Видео.
RG Всё лучшее - детям!
Uploader 500+
 
Стаж: 12 лет 8 мес.
Сообщений: 4823
Ratio: 359,993
Поблагодарили: 111147
100%
Откуда: Дааалекое Подмосковье
russia.gif
Путь в «Сатурн» / Конец «Сатурна» / Бой после победы (1967, 1972) DVDRip [H.264] [Трилогия]

Путь в «Сатурн»
Год выпуска: 1967
Страны: СССР
Жанры: военный
Продолжительность: 01:18:18

Режиссер: Виллен Азаров
Сценарий: Василий Ардаматский, Михаил Блейман, Виллен Азаров
Оператор: Марк Дятлов
Композитор : Александр Флярковский
Художник: Семен Ушаков, Н. Ефанова
Монтаж: А. Абрамова

В ролях: Михаил Волков (Крылов, Крамер), Георгий Жжёнов (Тимерин), Аркадий Толбузин (Дробот), Евгений Кузнецов (Симаков), Леонид Чубаров , Владимир Ферапонтов , Григорий Гай (Андронов), Николай Граббе (Ольховиков)


Описание: Группе советских разведчиков удается внедриться в немецкий центр шпионажа «Сатурн», осуществляющий подрывную деятельность на московском направлении. Доступ к секретной информации противника позволяет нашим тайным агентам успешно осуществлять задания командования…
Зрители: СССР 48.2 млн
Премьера (мир): 25 декабря 1967, ...

Качество: DVDRip-AVC
Формат: MKV
Видео кодек: H.264 (AVC)
Аудио кодек: AC3
Видео: 688x376 (16:9), 25.000 fps, AVC, 1 934 Kbps
Аудио: AC3, 256 Kbps, 48.0 KHz, 2 ch
Код: выделить все
General
Complete name                    : 1 film. Put v Saturn.mkv
Format                           : Matroska
File size                        : 1.20 GiB
Duration                         : 1h 18mn
Overall bit rate                 : 2 191 Kbps
Encoded date                     : UTC 2013-04-17 09:12:10
Writing application              : mkvmerge v6.0.0 ('Coming Up For Air') built on Jan 20 2013 09:52:00
Writing library                  : libebml v1.3.0 + libmatroska v1.4.0

Video
ID                               : 1
Format                           : AVC
Format/Info                      : Advanced Video Codec
Format profile                   : High@L4.1
Format settings, CABAC           : Yes
Format settings, ReFrames        : 6 frames
Muxing mode                      : Container profile=Unknown@4.1
Codec ID                         : V_MPEG4/ISO/AVC
Duration                         : 1h 18mn
Bit rate                         : 1 934 Kbps
Width                            : 688 pixels
Height                           : 376 pixels
Display aspect ratio             : 16:9
Frame rate                       : 25.000 fps
Color space                      : YUV
Chroma subsampling               : 4:2:0
Bit depth                        : 8 bits
Scan type                        : Progressive
Bits/(Pixel*Frame)               : 0.299
Stream size                      : 1.03 GiB (86%)
Writing library                  : x264 core 129 r2245 bc13772
Encoding settings                : cabac=1 / ref=6 / deblock=1:-1:-1 / analyse=0x3:0x113 / me=umh / subme=10 / psy=1 / psy_rd=1.00:0.15 / mixed_ref=1 / me_range=32 / chroma_me=1 / trellis=2 / 8x8dct=1 / cqm=0 / deadzone=21,11 / fast_pskip=1 / chroma_qp_offset=-3 / threads=12 / lookahead_threads=2 / sliced_threads=0 / nr=0 / decimate=1 / interlaced=0 / bluray_compat=0 / constrained_intra=0 / bframes=10 / b_pyramid=2 / b_adapt=2 / b_bias=0 / direct=1 / weightb=1 / open_gop=0 / weightp=2 / keyint=250 / keyint_min=25 / scenecut=40 / intra_refresh=0 / rc_lookahead=40 / rc=2pass / mbtree=1 / bitrate=1934 / ratetol=1.0 / qcomp=0.60 / qpmin=10 / qpmax=51 / qpstep=4 / cplxblur=20.0 / qblur=0.5 / ip_ratio=1.40 / aq=1:1.00

Audio
ID                               : 2
Format                           : AC-3
Format/Info                      : Audio Coding 3
Mode extension                   : CM (complete main)
Codec ID                         : A_AC3
Duration                         : 1h 18mn
Bit rate mode                    : Constant
Bit rate                         : 256 Kbps
Channel(s)                       : 2 channels
Channel positions                : Front: L R
Sampling rate                    : 48.0 KHz
Bit depth                        : 16 bits
Stream size                      : 143 MiB (12%)
Скриншоты:



Конец «Сатурна»
Год выпуска: 1967
Страны: СССР
Жанры: военный
Продолжительность: 01:31:16

Режиссер: Виллен Азаров
Сценарий: Василий Ардаматский, Виллен Азаров, Михаил Блейман
Оператор: Марк Дятлов
Композитор : Александр Флярковский
Художник: Семен Ушаков

В ролях: Михаил Волков (Крылов-Крамер), Георгий Жжёнов (Тимерин), Евгений Кузнецов (Симаков), Аркадий Толбузин (Дробот), Владимир Кашпур (лейтенант Бударин), Владимир Муравьев (Завгородный), Николай Граббе (Ольховиков), Бруно Фрейндлих (Канарис)


Описание: Получив сведения о немецких шпионах, советские разведчики смогли дезинформировать умного и коварного врага с помощью фальшивых донесений.Деятельность мощного разведоргана «Сатурн» оказывается нейтрализованной…
Зрители: СССР 42.7 млн
Премьера (мир): 15 января 1968

Качество: DVDRip-AVC
Формат: MKV
Видео кодек: H.264 (AVC)
Аудио кодек: AC3
Видео: 688x364 (1.890:1), 25.000 fps, AVC, 1 622 Kbps
Аудио: AC3, 256 Kbps, 48.0 KHz, 2 ch
Код: выделить все
General
Complete name                    : 2 film. Konec  Saturna.mkv
Format                           : Matroska
File size                        : 1.20 GiB
Duration                         : 1h 31mn
Overall bit rate                 : 1 880 Kbps
Encoded date                     : UTC 2013-04-17 11:46:19
Writing application              : mkvmerge v6.0.0 ('Coming Up For Air') built on Jan 20 2013 09:52:00
Writing library                  : libebml v1.3.0 + libmatroska v1.4.0

Video
ID                               : 1
Format                           : AVC
Format/Info                      : Advanced Video Codec
Format profile                   : High@L4.1
Format settings, CABAC           : Yes
Format settings, ReFrames        : 6 frames
Muxing mode                      : Container profile=Unknown@4.1
Codec ID                         : V_MPEG4/ISO/AVC
Duration                         : 1h 31mn
Bit rate                         : 1 622 Kbps
Width                            : 688 pixels
Height                           : 364 pixels
Display aspect ratio             : 1.890
Frame rate                       : 25.000 fps
Color space                      : YUV
Chroma subsampling               : 4:2:0
Bit depth                        : 8 bits
Scan type                        : Progressive
Bits/(Pixel*Frame)               : 0.259
Stream size                      : 1.01 GiB (84%)
Writing library                  : x264 core 129 r2245 bc13772
Encoding settings                : cabac=1 / ref=6 / deblock=1:-1:-1 / analyse=0x3:0x113 / me=umh / subme=10 / psy=1 / psy_rd=1.00:0.15 / mixed_ref=1 / me_range=32 / chroma_me=1 / trellis=2 / 8x8dct=1 / cqm=0 / deadzone=21,11 / fast_pskip=1 / chroma_qp_offset=-3 / threads=12 / lookahead_threads=2 / sliced_threads=0 / nr=0 / decimate=1 / interlaced=0 / bluray_compat=0 / constrained_intra=0 / bframes=10 / b_pyramid=2 / b_adapt=2 / b_bias=0 / direct=1 / weightb=1 / open_gop=0 / weightp=2 / keyint=250 / keyint_min=25 / scenecut=40 / intra_refresh=0 / rc_lookahead=40 / rc=2pass / mbtree=1 / bitrate=1622 / ratetol=1.0 / qcomp=0.60 / qpmin=10 / qpmax=51 / qpstep=4 / cplxblur=20.0 / qblur=0.5 / ip_ratio=1.40 / aq=1:1.00

Audio
ID                               : 2
Format                           : AC-3
Format/Info                      : Audio Coding 3
Mode extension                   : CM (complete main)
Codec ID                         : A_AC3
Duration                         : 1h 31mn
Bit rate mode                    : Constant
Bit rate                         : 256 Kbps
Channel(s)                       : 2 channels
Channel positions                : Front: L R
Sampling rate                    : 48.0 KHz
Bit depth                        : 16 bits
Stream size                      : 167 MiB (14%)
Скриншоты:



Бой после победы
Год выпуска: 1972
Страны: СССР
Жанры: триллер, военный
Продолжительность: 2 серии х ~ 01:21:49

Режиссер: Виллен Азаров
Сценарий: Михаил Блейман, Виллен Азаров, Василий Ардаматский
Оператор: Марк Дятлов
Композитор : Александр Флярковский
Художник: Семен Ушаков, Роза Сатуновская
Монтаж: Надежда Васильева

В ролях: Михаил Волков (Крылов-Крамер), Георгий Жжёнов (Тимерин), Николай Прокопович (Вильгельми), Людмила Максакова (Софи), Григорий Гай (Андронов), Владимир Гусев , Людмила Шапошникова , Алексей Эйбоженко


Описание: Завершение трилогии, начатой фильмами «Путь в «Сатурн», «Конец «Сатурна». После капитуляции Германии советский разведчик Крылов, внедряется в шпионскую организацию Гелена. Проявляя незаурядное мужество, он пытается сорвать планы организаторов новых диверсий.
Зрители: СССР 35.4 млн
Премьера (мир): 21 августа 1972, ...

Качество: DVDRip-AVC
Формат: MKV
Видео кодек: H.264 (AVC)
Аудио кодек: AC3
Видео: 656x294 (2.25:1), 25.000 fps, AVC, 1 064 Kbps
Аудио: AC3, 128 Kbps, 48.0 KHz, 1 ch
Код: выделить все
General
Complete name                    : 3 film. Boy posle pobedy 1 seriya.mkv
Format                           : Matroska
File size                        : 699 MiB
Duration                         : 1h 21mn
Overall bit rate                 : 1 194 Kbps
Encoded date                     : UTC 2013-04-19 10:39:08
Writing application              : mkvmerge v6.0.0 ('Coming Up For Air') built on Jan 20 2013 09:52:00
Writing library                  : libebml v1.3.0 + libmatroska v1.4.0

Video
ID                               : 1
Format                           : AVC
Format/Info                      : Advanced Video Codec
Format profile                   : High@L4.1
Format settings, CABAC           : Yes
Format settings, ReFrames        : 6 frames
Format settings, GOP             : M=1, N=22
Muxing mode                      : Container profile=Unknown@4.1
Codec ID                         : V_MPEG4/ISO/AVC
Duration                         : 1h 21mn
Bit rate                         : 1 064 Kbps
Width                            : 656 pixels
Height                           : 294 pixels
Display aspect ratio             : 2.25:1
Frame rate                       : 25.000 fps
Color space                      : YUV
Chroma subsampling               : 4:2:0
Bit depth                        : 8 bits
Scan type                        : Progressive
Bits/(Pixel*Frame)               : 0.221
Stream size                      : 610 MiB (87%)
Writing library                  : x264 core 129 r2245 bc13772
Encoding settings                : cabac=1 / ref=6 / deblock=1:-1:-1 / analyse=0x3:0x113 / me=umh / subme=10 / psy=1 / psy_rd=1.00:0.15 / mixed_ref=1 / me_range=32 / chroma_me=1 / trellis=2 / 8x8dct=1 / cqm=0 / deadzone=21,11 / fast_pskip=1 / chroma_qp_offset=-3 / threads=12 / lookahead_threads=2 / sliced_threads=0 / nr=0 / decimate=1 / interlaced=0 / bluray_compat=0 / constrained_intra=0 / bframes=10 / b_pyramid=2 / b_adapt=2 / b_bias=0 / direct=1 / weightb=1 / open_gop=0 / weightp=2 / keyint=250 / keyint_min=25 / scenecut=40 / intra_refresh=0 / rc_lookahead=40 / rc=2pass / mbtree=1 / bitrate=1064 / ratetol=1.0 / qcomp=0.60 / qpmin=10 / qpmax=51 / qpstep=4 / cplxblur=20.0 / qblur=0.5 / ip_ratio=1.40 / aq=1:1.00

Audio
ID                               : 2
Format                           : AC-3
Format/Info                      : Audio Coding 3
Mode extension                   : CM (complete main)
Codec ID                         : A_AC3
Duration                         : 1h 21mn
Bit rate mode                    : Constant
Bit rate                         : 128 Kbps
Channel(s)                       : 1 channel
Channel positions                : Front: C
Sampling rate                    : 48.0 KHz
Bit depth                        : 16 bits
Stream size                      : 74.9 MiB (11%)
Скриншоты:



Релиз-группа: by almikl ®


Время раздачи: 24/7, круглосуточно, до 10 скачавших
[NNM-Club.me]_Saturn (Trilogiya).DVDRip-AVC.[nnm-club.ru].torrent
 Торрент: Платиновая раздача  Зарегистрирован
 
Скачать


Примагнититься
 Зарегистрирован:   25 Янв 2019 15:34:07
 Размер:   3,76 GB  (
 Рейтинг:   4,8 (Голосов: 156)
 Поблагодарили:   546
 Проверка:   Оформление проверено модератором 25 Янв 2019 15:35:48
Как cкачать  ·  Как раздать  ·  Правильно оформить  ·  Поднять ратио!  
Lelikkyy
Стаж: 9 лет 4 мес.
Сообщений: 94
Ratio: 32,258
100%
Откуда: Урал, город Екатеринбург (Свердловск)
ussr.gif
Отличная трилогия ! Сюжет, игра Актёров (и каких Актёров) на высшем уровне... Качество фильма (все серии), очень приличное, пожалуй лучшее в инете.
FatherVark
Стаж: 5 лет
Сообщений: 2
59.46%
Отличная трилогия, читал книгу, давно искал фильм. Спасибо.
starfox32
Стаж: 5 лет 1 мес.
Сообщений: 13
Ratio: 2,709
100%
Старый шикарный фильм про наших разведчиков.Спасибо большое.
u571
Стаж: 9 лет 4 мес.
Сообщений: 34
Ratio: 5,973
Раздал: 1,219 TB
76.29%
Откуда: москва
russia.gif
С детства любимый фильм
URFIH
Стаж: 8 лет 10 мес.
Сообщений: 22
Ratio: 3,643
92.52%
Откуда: ГДЕ 7 ГУДКОВ,И ВСЕ НА ОБЕ
ussr.gif
пожалуйста помогите скачать.

_________________
Не во власти человека то, что приходит ему в голову.
ApeZ
Стаж: 7 лет 2 мес.
Сообщений: 497
Ratio: 127,706
100%
Откуда: СССР
ussr.gif
Lelikkyy писал(а): Перейти к сообщению
Отличная трилогия ! Сюжет, игра Актёров (и каких Актёров) на высшем уровне... Качество фильма (все серии), очень приличное, пожалуй лучшее в инете.

Да! Самое главное, всё, что происходит в фильме, было на самом деле. Снято по реальной истории!
Liber238
Стаж: 6 лет 1 мес.
Сообщений: 234
Ratio: 10,297
8.05%
Откуда: Москва
russia.gif
Классика жанра.
Показать сообщения:   
Начать новую тему   Ответить на тему    Торрент-трекер NNM-Club -> Коллекции / *логии -> Отечественное кино (коллекции / *логии) Часовой пояс: GMT + 3
Страница 1 из 1