Классический форум-трекер
canvas not supported
Нас вместе: 4 071 393

Неудержимый / Bullet to the Head (2012) BDRip [1080p]


 
 
RSS
Начать новую тему   Ответить на тему    Торрент-трекер NNM-Club -> Зарубежное кино -> Зарубежные Фильмы (HD, UHD-LQ)
Автор Сообщение
maxwelex ®
Стаж: 9 лет 2 мес.
Сообщений: 346
Ratio: 218,758
Раздал: 101,2 TB
Поблагодарили: 25410
100%
Откуда: Северный Кавказ
ussr.gif
Неудержимый / Bullet to the Head (2012) BDRip

Год выпуска: 2012
Производство: США / AfterDark Films, Automatik Entertainment, IM Global
Жанр: Боевик, Триллер, Криминал
Перевод: Дублированный (лицензия), Одноголосый закадровый (Ю.Сербин)
Субтитры: Вшитые отключаемые
Язык субтитров: Русский, английский

Дата мировой премьеры: 14 ноября 2012
Дата российской премьеры: 7 февраля 2013, «Централ Партнершип»
Дата выхода DVD / Blu-Ray релиза: 27 июня 2013, «CD Land»

Режиссер: Уолтер Хилл
Актеры: Сильвестр Сталлоне, Санг Кенг, Сара Шахи, Адевале Акинойе-Агбаже, Джейсон Момоа, Кристиан Слэйтер, Джон Седа, Холт МакКэллани, Брайан Ван Холт, Вероника Розати

Описание фильма:
Киллер из Нового Орлеана объединяется с молодым полицейским из Нью-Йорка, расследуя дело, которое выводит их с мрачных задворок Нового Орлеана в светлые коридоры правительственных зданий в Вашингтоне. Необычный дуэт формируется в результате двух жестоких убийств. Герои убирают всех, кто стоит у них на пути, и готовы пожертвовать всем, чтобы отомстить.



Продолжительность: 01:31:33
Качество видео: BDRip 1080p

Видеокодек: MPEG-4 AVC/H.264
Битрейт видео: ~14,6 Мбит/сек
Размер кадра: 1920x1036
Аудио #1: Русский ( DTS / 5.1 / 48 kHz / 1509 kbps ) - Дубляж
Аудио #2: Русский ( DTS / 5.1 / 48 kHz / 1509 kbps ) - Авторский (одноголосый) Ю.Сербин
Аудио #3: Английский ( DTS / 5.1 / 48 kHz / 1510 kbps )

Код:
Общее
Уникальный идентификатор : 230952130304288080106653020526892870462 (0xADBFC3293167AE1193BD0D1B99E4EB3E)
Полное имя : Неудержимый _ Bullet to the Head (2012) BDRip 1080p.mkv
Формат : Matroska
Версия формата : Version 2
Размер файла : 12,5 Гбайт
Продолжительность : 1 ч. 31 м.
Общий поток : 19,5 Мбит/сек
Дата кодирования : UTC 2013-06-26 09:03:46
Программа кодирования : mkvmerge v4.0.0 ('The Stars were mine') сборка от Jun 6 2010 16:18:42
Библиотека кодирования : libebml v1.0.0 + libmatroska v1.0.0

Видео
Идентификатор : 1
Формат : AVC
Формат/Информация : Advanced Video Codec
Профиль формата : High@L4.1
Параметр CABAC формата : Да
Параметр ReFrames формата : 4 кадра
Идентификатор кодека : V_MPEG4/ISO/AVC
Продолжительность : 1 ч. 31 м.
Битрейт : 14,6 Мбит/сек
Ширина : 1920 пикселей
Высота : 1036 пикселей
Соотношение сторон : 1,85:1
Режим частоты кадров : Постоянный
Частота кадров : 23,976 кадра/сек
Цветовое пространство : YUV
Субдискретизация насыщенности : 4:2:0
Битовая глубина : 8 бит
Тип развёртки : Прогрессивная
Бит/(Пиксели*Кадры) : 0.306
Размер потока : 9,34 Гбайт (75%)
Библиотека кодирования : x264 core 133 r2334+704+50 a7549b7 tMod [8-bit@all X86_64]
Настройки программы : cabac=1 / ref=4 / deblock=1:-3:-3 / analyse=0x3:0x133 / me=tesa / subme=11 / psy=1 / fade_compensate=0.00 / psy_rd=1.08:0.00 / mixed_ref=1 / me_range=24 / chroma_me=1 / trellis=2 / 8x8dct=1 / cqm=0 / deadzone=21,11 / fast_pskip=0 / chroma_qp_offset=-2 / threads=12 / lookahead_threads=2 / sliced_threads=0 / nr=0 / decimate=1 / interlaced=0 / bluray_compat=0 / constrained_intra=0 / fgo=0 / bframes=8 / b_pyramid=2 / b_adapt=2 / b_bias=0 / direct=3 / weightb=1 / open_gop=0 / weightp=2 / keyint=250 / keyint_min=23 / scenecut=40 / intra_refresh=0 / rc_lookahead=250 / rc=crf / mbtree=1 / crf=18.1000 / qcomp=0.69 / qpmin=0 / qpmax=69 / qpstep=4 / vbv_maxrate=40000 / vbv_bufsize=30000 / crf_max=0.0 / nal_hrd=none / ip_ratio=1.40 / aq=2:0.87 / aq-sensitivity=10.00 / aq-factor=1.00:1.00:1.00 / aq2=0 / aq3=0
Язык : English
Default : Нет
Forced : Нет
Коэффициенты матрицы : BT.709

Аудио #1
Идентификатор : 2
Формат : DTS
Формат/Информация : Digital Theater Systems
Режим : 16
Параметр Endianness формата : Big
Идентификатор кодека : A_DTS
Продолжительность : 1 ч. 31 м.
Вид битрейта : Постоянный
Битрейт : 1509 Кбит/сек
Каналы : 6 каналов
Расположение каналов : Front: L C R, Side: L R, LFE
Частота : 48,0 КГц
Битовая глубина : 24 бит
Метод сжатия : С потерями
Задержка видео : 11 мс.
Размер потока : 988 Мбайт (8%)
Заголовок : |Дубляж|
Язык : Russian
Default : Нет
Forced : Нет

Аудио #2
Идентификатор : 3
Формат : DTS
Формат/Информация : Digital Theater Systems
Режим : 16
Параметр Endianness формата : Big
Идентификатор кодека : A_DTS
Продолжительность : 1 ч. 31 м.
Вид битрейта : Постоянный
Битрейт : 1509 Кбит/сек
Каналы : 6 каналов
Расположение каналов : Front: L C R, Side: L R, LFE
Частота : 48,0 КГц
Битовая глубина : 24 бит
Метод сжатия : С потерями
Задержка видео : 11 мс.
Размер потока : 988 Мбайт (8%)
Заголовок : |Одноголосый закадровый, Ю.Сербин|
Язык : Russian
Default : Нет
Forced : Нет

Аудио #3
Идентификатор : 4
Формат : DTS
Формат/Информация : Digital Theater Systems
Режим : 16
Параметр Endianness формата : Big
Идентификатор кодека : A_DTS
Продолжительность : 1 ч. 31 м.
Вид битрейта : Постоянный
Битрейт : 1510 Кбит/сек
Каналы : 6 каналов
Расположение каналов : Front: L C R, Side: L R, LFE
Частота : 48,0 КГц
Битовая глубина : 24 бит
Метод сжатия : С потерями
Задержка видео : 11 мс.
Размер потока : 989 Мбайт (8%)
Язык : English
Default : Нет
Forced : Нет

Текст #1
Идентификатор : 5
Формат : UTF-8
Идентификатор кодека : S_TEXT/UTF8
Идентификатор кодека/Информация : UTF-8 Plain Text
Язык : Russian
Default : Нет
Forced : Нет

Текст #2
Идентификатор : 6
Формат : UTF-8
Идентификатор кодека : S_TEXT/UTF8
Идентификатор кодека/Информация : UTF-8 Plain Text
Язык : English
Default : Нет
Forced : Нет

Меню
00:00:00.000 : :00:00:00.000
00:06:32.433 : :00:06:32.433
00:07:43.379 : :00:07:43.379
00:11:30.439 : :00:11:30.439
00:16:25.109 : :00:16:25.109
00:21:54.354 : :00:21:54.354
00:27:53.546 : :00:27:53.546
00:30:30.078 : :00:30:30.078
00:34:59.931 : :00:34:59.931
00:40:39.311 : :00:40:39.311
00:47:19.294 : :00:47:19.294
00:56:18.375 : :00:56:18.375
01:00:55.109 : :01:00:55.109
01:03:45.446 : :01:03:45.446
01:07:01.183 : :01:07:01.183
01:09:18.571 : :01:09:18.571
01:13:50.968 : :01:13:50.968
01:17:32.356 : :01:17:32.356
01:23:24.332 : :01:23:24.332
01:26:23.011 : :01:26:23.011


Скриншоты:








Время раздачи: с 10:00 до 23:00 ежедневно
[NNM-Club.ru]_Neuderzhimyiy _ Bullet to the Head (2012) BDRip 1080p.mkv.torrent
 Торрент: Платиновая раздача  Зарегистрирован
 
Скачать


 Зарегистрирован:   26 Июн 2013 13:20:32
 Размер:   12,5 GB  (
 Рейтинг:   4,4 (Голосов: 52)
 Поблагодарили:   194
 Проверка:   Оформление проверено модератором 27 Июн 2013 05:33:34
Как cкачать  ·  Как раздать  ·  Правильно оформить  ·  Поднять ратио!  
Показать сообщения:   
Начать новую тему   Ответить на тему    Торрент-трекер NNM-Club -> Зарубежное кино -> Зарубежные Фильмы (HD, UHD-LQ) Часовой пояс: GMT + 3
Страница 1 из 1