Классический форум-трекер
canvas not supported
Нас вместе: 4 076 874

Snowy White - Live in London (1984) (2005) DVD5


 
 
RSS
Начать новую тему   Ответить на тему    Торрент-трекер NNM-Club -> Архив торрентов -> Архив Музыкального Видео
Автор Сообщение
gigelmesh ®
Стаж: 7 лет
Сообщений: 572
Ratio: 93,712
Поблагодарили: 26954
100%
Snowy White - Live in London (1984) (2005) DVD5
Год выпуска: 2005
Жанр: Blues Rock

Описание фильма:
Теренс Чарльз Уайт получил свою первую гитару от родителей, когда ему исполнилось десять лет. На становление музыкальных вкусов молодого человека повлияли такие артисты как Джон Майалл и Эрик Клэптон, Би Би Кинг и Отис Раш, Бадди Гай и Альберт Кинг. Впоследствии Уайт выработал собственный стиль, комбинирующий чисто блюзовые фишки с тяжелыми риффами.
В середине 90-ых Сноуи Уайт сформировал свое собственное трио «White Flames», и стех пор выпускает свои релизы под вывеской «Snowy White and the White Flames». Музыкальная направленность его нового коллектива впитывает в себя все самое лучшее из классического джаза, прогрессивного рока и традиционного блюза. Записано в Camden Palace Theatre в Лондоне 30 ноября 1984г.

Трек лист:
01. The Water's Edge / Stepping Stones
02. Broken Promises
03. Lucky Star
04. For The Rest Of My Life
05. Bird Of Paradise
06. At The Crossroads
07. The Journeys Part 1 & 2
08. The Answer
09. Chinese Burn
10. Fortune
Personnel:
Snowy White – Guitar,Vocals
Winston Delandro - Guitar,Vocals
Kuma Harada – Bass
Godfrey Wang – Keyboards
Richard Bailey – Drums
Качество видео: DVD5
Качество: DVD5
Формат: DVD Video
Видео: NTSC 4:3 (720x480) 3,92 Gb
Аудио: (LinearPCM, 2 ch)
Продолжительность: 00:59:17
Общее
Полное имя : D:\MEDIA\Audio\Snowy White - Live in London (1984)\VIDEO_TS\VIDEO_TS.BUP
Формат : DVD Video
Профиль формата : Menu
Размер файла : 12,0 Кбайт
Режим общего битрейта : Переменный

Видео
Идентификатор : 224 (0xE0)
Формат : MPEG Video
Версия формата : Version 2
Вид битрейта : Переменный
Ширина : 720 пикселей
Высота : 480 пикселей
Соотношение сторон : 4:3
Частота кадров : 29,970 кадров/сек
Стандарт вещания : NTSC
Метод сжатия : С потерями

Аудио
Формат : PCM
Каналы : 2 канала
Частота : 48,0 КГц

Текст
Формат : RLE
Формат/Информация : Run-length encoding
Битовая глубина : 2 бит

Общее
Полное имя : D:\MEDIA\Audio\Snowy White - Live in London (1984)\VIDEO_TS\VIDEO_TS.IFO
Формат : DVD Video
Профиль формата : Menu
Размер файла : 12,0 Кбайт
Режим общего битрейта : Переменный

Видео
Идентификатор : 224 (0xE0)
Формат : MPEG Video
Версия формата : Version 2
Вид битрейта : Переменный
Ширина : 720 пикселей
Высота : 480 пикселей
Соотношение сторон : 4:3
Частота кадров : 29,970 кадров/сек
Стандарт вещания : NTSC
Метод сжатия : С потерями

Аудио
Формат : PCM
Каналы : 2 канала
Частота : 48,0 КГц

Общее
Полное имя : D:\MEDIA\Audio\Snowy White - Live in London (1984)\VIDEO_TS\VIDEO_TS.VOB
Формат : MPEG-PS
Размер файла : 86,0 Кбайт
Продолжительность : 398 мс.
Общий поток : 1770 Кбит/сек

Видео
Идентификатор : 224 (0xE0)
Формат : MPEG Video
Версия формата : Version 2
Профиль формата : Main@Main
Параметр BVOP формата : Нет
Параметр матрицы формата : Выборочная
Продолжительность : 33 мс.
Максимальный битрейт : 8000 Кбит/сек
Ширина : 720 пикселей
Высота : 480 пикселей
Соотношение сторон : 4:3
Частота кадров : 29,970 кадров/сек
Стандарт вещания : NTSC
Цветовое пространство : YUV
Субдискретизация насыщенности : 4:2:0
Битовая глубина : 8 бит
Тип развёртки : Прогрессивная
Порядок развёртки : Верхнее поле первое
Метод сжатия : С потерями
TimeCode_FirstFrame : 00:00:00:00
TimeCode_Source : Group of pictures header

Аудио
Идентификатор : 189 (0xBD)-160 (0xA0)
Формат : PCM
Параметр Endianness формата : Big
Параметр Sign формата : Signed
Режим смешивания : DVD-Video
Продолжительность : 398 мс.
Вид битрейта : Постоянный
Битрейт : 1536 Кбит/сек
Каналы : 2 канала
Частота : 48,0 КГц
Битовая глубина : 16 бит
Размер потока : 74,6 Кбайт (87%)

Меню

Общее
Полное имя : D:\MEDIA\Audio\Snowy White - Live in London (1984)\VIDEO_TS\VTS_01_0.BUP
Формат : DVD Video
Профиль формата : Program
Размер файла : 54,0 Кбайт
Продолжительность : 1 ч. 3 м.
Режим общего битрейта : Переменный
Общий поток : 115 бит/сек

Видео
Идентификатор : 224 (0xE0)
Формат : MPEG Video
Версия формата : Version 2
Продолжительность : 1 ч. 3 м.
Вид битрейта : Переменный
Ширина : 720 пикселей
Высота : 480 пикселей
Соотношение сторон : 4:3
Частота кадров : 29,970 кадров/сек
Стандарт вещания : NTSC
Метод сжатия : С потерями

Аудио
Идентификатор : 0 (0x0)
Формат : PCM
Продолжительность : 1 ч. 3 м.
Каналы : 2 канала
Частота : 48,0 КГц
Язык : English

Меню #1
Продолжительность : 1 ч. 3 м.
00:00:00.000 : Chapter 1
00:06:43.233 : Chapter 2
00:12:04.799 : Chapter 3
00:18:08.132 : Chapter 4
00:23:59.465 : Chapter 5
00:29:36.965 : Chapter 6
00:35:28.965 : Chapter 7
00:42:41.831 : Chapter 8
00:47:27.297 : Chapter 9
00:55:02.697 : Chapter 10
00:59:59.663 : Chapter 11
01:03:53.463 : Chapter 12
List (Audio) : 0

Меню #2
Продолжительность : 27 с.
00:00:00.000 : Chapter 1
List (Audio) : 0

Меню #3

Общее
Полное имя : D:\MEDIA\Audio\Snowy White - Live in London (1984)\VIDEO_TS\VTS_01_0.IFO
Формат : DVD Video
Профиль формата : Program
Размер файла : 54,0 Кбайт
Продолжительность : 1 ч. 3 м.
Режим общего битрейта : Переменный
Общий поток : 115 бит/сек

Видео
Идентификатор : 224 (0xE0)
Формат : MPEG Video
Версия формата : Version 2
Продолжительность : 1 ч. 3 м.
Вид битрейта : Переменный
Ширина : 720 пикселей
Высота : 480 пикселей
Соотношение сторон : 4:3
Частота кадров : 29,970 кадров/сек
Стандарт вещания : NTSC
Метод сжатия : С потерями

Аудио
Идентификатор : 0 (0x0)
Формат : PCM
Продолжительность : 1 ч. 3 м.
Каналы : 2 канала
Частота : 48,0 КГц
Язык : English

Меню #1
Продолжительность : 1 ч. 3 м.
00:00:00.000 : Chapter 1
00:06:43.233 : Chapter 2
00:12:04.799 : Chapter 3
00:18:08.132 : Chapter 4
00:23:59.465 : Chapter 5
00:29:36.965 : Chapter 6
00:35:28.965 : Chapter 7
00:42:41.831 : Chapter 8
00:47:27.297 : Chapter 9
00:55:02.697 : Chapter 10
00:59:59.663 : Chapter 11
01:03:53.463 : Chapter 12
List (Audio) : 0

Меню #2
Продолжительность : 27 с.
00:00:00.000 : Chapter 1
List (Audio) : 0

Меню #3

Общее
Полное имя : D:\MEDIA\Audio\Snowy White - Live in London (1984)\VIDEO_TS\VTS_01_0.VOB
Формат : MPEG-PS
Размер файла : 23,7 Мбайт
Продолжительность : 46 с.
Общий поток : 4320 Кбит/сек

Видео
Идентификатор : 224 (0xE0)
Формат : MPEG Video
Версия формата : Version 2
Профиль формата : Main@Main
Параметр BVOP формата : Нет
Параметр матрицы формата : Выборочная
Параметр GOP формата : N=1
Продолжительность : 42 с.
Битрейт : 2698 Кбит/сек
Максимальный битрейт : 8000 Кбит/сек
Ширина : 720 пикселей
Высота : 480 пикселей
Соотношение сторон : 4:3
Частота кадров : 29,970 кадров/сек
Стандарт вещания : NTSC
Цветовое пространство : YUV
Субдискретизация насыщенности : 4:2:0
Битовая глубина : 8 бит
Тип развёртки : Прогрессивная
Порядок развёртки : Верхнее поле первое
Метод сжатия : С потерями
Бит/(Пиксели*Кадры) : 0.261
TimeCode_FirstFrame : 00:00:00:00
TimeCode_Source : Group of pictures header
Размер потока : 13,6 Мбайт (57%)

Аудио
Идентификатор : 189 (0xBD)-160 (0xA0)
Формат : PCM
Параметр Endianness формата : Big
Параметр Sign формата : Signed
Режим смешивания : DVD-Video
Продолжительность : 46 с.
Вид битрейта : Постоянный
Битрейт : 1536 Кбит/сек
Каналы : 2 канала
Частота : 48,0 КГц
Битовая глубина : 16 бит
Размер потока : 8,43 Мбайт (36%)

Текст
Идентификатор : 189 (0xBD)-32 (0x20)
Формат : RLE
Формат/Информация : Run-length encoding
Режим смешивания : DVD-Video

Меню

Общее
Полное имя : D:\MEDIA\Audio\Snowy White - Live in London (1984)\VIDEO_TS\VTS_01_1.VOB
Формат : MPEG-PS
Размер файла : 1024 Мбайт
Продолжительность : 16 м.
Общий поток : 8863 Кбит/сек

Видео
Идентификатор : 224 (0xE0)
Формат : MPEG Video
Версия формата : Version 2
Профиль формата : Main@Main
Параметр BVOP формата : Да
Параметр матрицы формата : По умолчанию
Параметр GOP формата : Variable
Продолжительность : 16 м.
Битрейт : 7150 Кбит/сек
Ширина : 720 пикселей
Высота : 480 пикселей
Соотношение сторон : 4:3
Частота кадров : 29,970 кадров/сек
Стандарт вещания : NTSC
Цветовое пространство : YUV
Субдискретизация насыщенности : 4:2:0
Битовая глубина : 8 бит
Метод сжатия : С потерями
Бит/(Пиксели*Кадры) : 0.690
TimeCode_FirstFrame : 00:00:00:00
TimeCode_Source : Group of pictures header
Размер потока : 826 Мбайт (81%)
Основные цвета : BT.601 NTSC
Характеристики трансфера : BT.601
Коэффициенты матрицы : BT.601

Аудио
Идентификатор : 189 (0xBD)-160 (0xA0)
Формат : PCM
Параметр Endianness формата : Big
Параметр Sign формата : Signed
Режим смешивания : DVD-Video
Продолжительность : 16 м.
Вид битрейта : Постоянный
Битрейт : 1536 Кбит/сек
Каналы : 2 канала
Частота : 48,0 КГц
Битовая глубина : 16 бит
Размер потока : 177 Мбайт (17%)

Меню

Общее
Полное имя : D:\MEDIA\Audio\Snowy White - Live in London (1984)\VIDEO_TS\VTS_01_2.VOB
Формат : MPEG-PS
Размер файла : 1024 Мбайт
Продолжительность : 16 м.
Режим общего битрейта : Переменный
Общий поток : 8497 Кбит/сек

Видео
Идентификатор : 224 (0xE0)
Формат : MPEG Video
Версия формата : Version 2
Профиль формата : Main@Main
Параметр BVOP формата : Да
Параметр матрицы формата : Выборочная
Параметр GOP формата : M=3, N=15
Продолжительность : 16 м.
Вид битрейта : Переменный
Битрейт : 6792 Кбит/сек
Максимальный битрейт : 8000 Кбит/сек
Ширина : 720 пикселей
Высота : 480 пикселей
Соотношение сторон : 4:3
Частота кадров : 29,970 кадров/сек
Стандарт вещания : NTSC
Цветовое пространство : YUV
Субдискретизация насыщенности : 4:2:0
Битовая глубина : 8 бит
Тип развёртки : Чересстрочная
Порядок развёртки : Верхнее поле первое
Метод сжатия : С потерями
Бит/(Пиксели*Кадры) : 0.656
TimeCode_FirstFrame : 00:16:08:09
TimeCode_Source : Group of pictures header
Размер потока : 818 Мбайт (80%)

Аудио
Идентификатор : 189 (0xBD)-160 (0xA0)
Формат : PCM
Параметр Endianness формата : Big
Параметр Sign формата : Signed
Режим смешивания : DVD-Video
Продолжительность : 16 м.
Вид битрейта : Постоянный
Битрейт : 1536 Кбит/сек
Каналы : 2 канала
Частота : 48,0 КГц
Битовая глубина : 16 бит
Задержка видео : -329 мс.
Размер потока : 185 Мбайт (18%)

Меню

Общее
Полное имя : D:\MEDIA\Audio\Snowy White - Live in London (1984)\VIDEO_TS\VTS_01_3.VOB
Формат : MPEG-PS
Размер файла : 1023 Мбайт
Продолжительность : 16 м.
Режим общего битрейта : Переменный
Общий поток : 8826 Кбит/сек

Видео
Идентификатор : 224 (0xE0)
Формат : MPEG Video
Версия формата : Version 2
Профиль формата : Main@Main
Параметр BVOP формата : Да
Параметр матрицы формата : Выборочная
Параметр GOP формата : M=3, N=15
Продолжительность : 16 м.
Вид битрейта : Переменный
Битрейт : 7114 Кбит/сек
Максимальный битрейт : 8000 Кбит/сек
Ширина : 720 пикселей
Высота : 480 пикселей
Соотношение сторон : 4:3
Частота кадров : 29,970 кадров/сек
Стандарт вещания : NTSC
Цветовое пространство : YUV
Субдискретизация насыщенности : 4:2:0
Битовая глубина : 8 бит
Тип развёртки : Чересстрочная
Порядок развёртки : Верхнее поле первое
Метод сжатия : С потерями
Бит/(Пиксели*Кадры) : 0.687
TimeCode_FirstFrame : 00:32:57:29
TimeCode_Source : Group of pictures header
Размер потока : 825 Мбайт (81%)

Аудио
Идентификатор : 189 (0xBD)-160 (0xA0)
Формат : PCM
Параметр Endianness формата : Big
Параметр Sign формата : Signed
Режим смешивания : DVD-Video
Продолжительность : 16 м.
Вид битрейта : Постоянный
Битрейт : 1536 Кбит/сек
Каналы : 2 канала
Частота : 48,0 КГц
Битовая глубина : 16 бит
Задержка видео : -335 мс.
Размер потока : 178 Мбайт (17%)

Меню

Общее
Полное имя : D:\MEDIA\Audio\Snowy White - Live in London (1984)\VIDEO_TS\VTS_01_4.VOB
Формат : MPEG-PS
Размер файла : 921 Мбайт
Режим общего битрейта : Переменный

Видео
Идентификатор : 224 (0xE0)
Формат : MPEG Video
Версия формата : Version 2
Профиль формата : Main@Main
Параметр BVOP формата : Да
Параметр матрицы формата : Выборочная
Параметр GOP формата : M=3, N=15
Вид битрейта : Переменный
Максимальный битрейт : 8000 Кбит/сек
Ширина : 720 пикселей
Высота : 480 пикселей
Соотношение сторон : 4:3
Частота кадров : 29,970 кадров/сек
Стандарт вещания : NTSC
Цветовое пространство : YUV
Субдискретизация насыщенности : 4:2:0
Битовая глубина : 8 бит
Тип развёртки : Чересстрочная
Порядок развёртки : Верхнее поле первое
Метод сжатия : С потерями
TimeCode_FirstFrame : 00:49:09:24
TimeCode_Source : Group of pictures header

Аудио
Идентификатор : 189 (0xBD)-160 (0xA0)
Формат : PCM
Параметр Endianness формата : Big
Параметр Sign формата : Signed
Режим смешивания : DVD-Video
Вид битрейта : Постоянный
Битрейт : 1536 Кбит/сек
Каналы : 2 канала
Частота : 48,0 КГц
Битовая глубина : 16 бит
Задержка видео : -326 мс.

Забросив школу в 16 лет, "с двумя пенни в кармане", Сноуи перебрался из Девона в Лондон. Уайту потребовалось не слишком много времени, чтобы заработать статус талантливого сессионщика. Немалую роль в продвижении молодого музыканта сыграли простота и легкость его характера.
В 1974 году Сноуи совершил вояж в Америку, посетив Мекку блюза, Новый Орлеан, чем остался весьма доволен. Где-то в этот же период Уайт познакомился с Питером Грином, и гитаристы частенько устраивали совместные джемы. В середине 70-х Сноуи много трудился на сессионной работе, но уже начал потихоньку писать собственный материал.
Snowy White Осенью 1976-го Уайту неожиданно пришло приглашение поработать в "Pink Floyd", и он с удовольствием согласился. С этой группой Сноуи гастролировал около двух лет, а потом помог Рику Райту записать сольник "Wet dream". В 1979 году, когда Питер Грин решил возобновить свою карьеру, он пригласил Уайта поджемовать вместе как в старые добрые времена. В результате на свет появился альбом "In the skies". Не успел Сноуи опомниться от этих сессий, как на него свалились сразу два предложения – от "Pink Floyd" и от "Thin Lizzy". Гитарист принял оба приглашения и после американских концертов "Флойда" отправился записывать "Chinatown". Примечательно, что несколько песен из этого альбома (впрочем как и в случае с "Renegade), включая заглавный трек, были написаны в соавторстве со Сноуи.
В 1982 году Уайт расстался с "Thin Lizzy" и решил начать сольную карьеру. В состав сопровождающей его команды вошли Ричард Бэйли (ударные), Годфри Вонг (клавишные) и Кума Харада (бас). Альбом "White flames" сопровождался хит-синглом "Bird of paradise", занявшим высокие позиции в чартах многих стран.
Snowy WhiteПосле "Bird of paradise" многие стали воспринимать Уайта как балладного исполнителя, поэтому музыкант решил сменить ориентиры и собрал новую, блюзовую команду "The blues agency". В период с 1986 по 1989-й группа много гастролировала по Европе, а также выпустила пару альбомов. В июне 1990 года Роджер Уотерс привлек Уайта к своему грандиозному проекту организации концерта "The Wall" в Берлине. Одним из ярких моментов этого шоу стало соло Сноуи в "Comfortably numb", исполненное им на восьмидесятифутовой стене. В 1991-м гитарист еще разок выручил Уотерса на концерте "Guitar legends", после чего занялся подготовкой очередного сольного альбома.
"Highway to the sun" содержал помимо собственного материала кавер Грина "I loved another woman", а среди гостей на нем значились Крис Ри, Дэвид Гилмор и Гэри Мур. В 1996-м Уайт выпустил компиляцию "Gold top", куда вошли его сессионные работы с "Thin Lizzy", Питером Грином, Элом Стюартом, "Pink Floyd", а также некоторые концертные номера. В конце 90-х, а также в начале нового тысячелетия Сноуи вместе с "White flames" продолжал выпускать сольные альбомы и участвовал в гастрольных турах Роджера Уотерса.
Скриншоты:


Snowy White - The Way it is: live (2005)

Время раздачи: с 08:00 до 24:00
[NNM-Club.ru]_Snowy White - Live in London (1984).torrent
 Торрент: Платиновая раздача  Зарегистрирован
 
Скачать


 Зарегистрирован:   30 Июн 2013 13:31:20
 Размер:   3,92 GB  (
 Рейтинг:   4,3 (Голосов: 16)
 Поблагодарили:   33
 Проверка:   Оформление проверено модератором 07 Июл 2013 11:07:21
Как cкачать  ·  Как раздать  ·  Правильно оформить  ·  Поднять ратио!  
Топик был перенесен из форума Концерты (DVD) в форум Архив Музыкального Видео

Причина переноса: Раздающего не было месяц или более
Robert Ingil
TIMA474
Стаж: 6 лет 3 мес.
Сообщений: 5
Ratio: 141,248
100%
Блин, я нажал не тот рейтинг. Я опьянён музыкой, думал там написано "Убило меня" - вроде полный восторг, а там "Убил время". Прошу прощения, спасибо за релиз.
Показать сообщения:   
Начать новую тему   Ответить на тему    Торрент-трекер NNM-Club -> Архив торрентов -> Архив Музыкального Видео Часовой пояс: GMT + 3
Страница 1 из 1