Классический форум-трекер
canvas not supported
Нас вместе: 4 103 297

Cosmowarrior Zero / Cosmo Warrior Zero / Космический воин Зеро [2001, TV + SP, 13 + 2] DVDRip 480p raw + eng


 
 
RSS
Начать новую тему   Ответить на тему    Торрент-трекер NNM-Club -> Аниме с субтитрами -> Аниме (SD)
Автор Сообщение
loki ®
Стаж: 9 лет 2 мес.
Сообщений: 4729
Ratio: 62,852
Поблагодарили: 37388
100%
Откуда: Днепр
roody.gif
コスモウォーリアー零
Cosmo Warrior Zero
Космический воин Зеро

Жанр: приключения, фантастика
Тип: TV-сериал
Продолжительность: 13 эп. + 2 спэшла, 25 мин.
Дата премьеры / период выхода: c 07.07.2001 по 29.09.2001
Производство/студия:
Автор оригинала: Мацумото Лэйдзи
Режиссер: Ёкота Кадзуёси
Качество видео: DVDRip
Релиз/Автор рипа: AnimeSkyScraper
Контейнер: MKV
Видео: MPEG4/DivX 5
Битрейт видео: ~1120 Kbps; 29,970 fps
Размер кадра: 640x480 (4:3)
Аудио:
JAP; Vorbis; 48.0 KHz; 2ch; 104 Kbps
ENG; Vorbis; 48.0 KHz; 2ch; 104 Kbps
Субтитры:
RUS; VampirY SRT (int)
ENG; [ASS] SRT (int)
Описание:
Война между людьми и Механоидами закончилась, наступил, пусть и хрупкий, но все же мир.
Вышедший в отставку адмирал Зеро занимается тем, что обучает новичков полетам в космосе.
Но на его пути возникает космический пират Харлок и не смотря на все попытки Зеро предотвратить это - уничтожает транспортный корабль Механоидов.
Правительство Земли отправляет Зеро на поиски Харлока, и даже возвращает ему его боевой корабль Карию (Огненный Дракон).
Теперь начинается долгий путь Зеро полный приключений, предательства и опасностей…..

В мультфильме представлены хорошо известные персонажи из вселенной Мацумото Лэйдзи, такие как Капитан Харлок, Точиро, Эмеральда и Мэйтел и многие другие.

Два эпизода Cosmo Warrior Zero Gaiden считаются 14-м и 15-м эпизодами ТВ-сериала, представляя собой его предысторию.
01. Start of Great Voyage
02. Marina's Influence
03. Flame of Karyu
04. Soldier Grenadier's Soul
05. Immortal Samurai, Tochiro
06. My Friend Harlock
07. Credible Way
08. Marina Eternal Love
09. Sad Planet
10. The End of the Galaxy
11. Great Technologia
12. Endless Fight
13. Vow
Спецэпизоды:
14. Hunt for Young Harlock Part-1 – Zero vs. Harlock
15. Hunt for Young Harlock Part-2 – For the flag of Freedom
Код:
Общее
Уникальный идентификатор                 : 91239736559256169778749553391537221669 (0x44A42252C9C66463C91C658EE04BF025)
Полное имя                               : Cosmo Warrior Zero e01.mkv
Формат                                   : Matroska
Версия формата                           : Version 1
Размер файла                             : 229 Мбайт
Продолжительность                        : 24 м.
Режим общего битрейта                    : Переменный
Общий поток                              : 1311 Кбит/сек
Дата кодирования                         : UTC 2008-01-10 08:03:24
Программа кодирования                    : VirtualDubMod 1.5.10.2 (build 2542/release)
Библиотека кодирования                   : libebml-0.7.5 & libmatroska-0.7.7
Язык                                     : eng

Видео
Идентификатор                            : 1
Формат                                   : MPEG-4 Visual
Параметр BVOP формата                    : Да
Параметр QPel формата                    : Нет
Параметр GMC формата                     : Без точки перехода
Параметр матрицы формата                 : Default (H.263)
Идентификатор кодека                     : V_MS/VFW/FOURCC / DX50
Идентификатор кодека/Подсказка           : DivX 5
Продолжительность                        : 24 м.
Битрейт                                  : 1077 Кбит/сек
Ширина                                   : 640 пикселей
Высота                                   : 480 пикселей
Соотношение сторон                       : 4:3
Режим частоты кадров                     : Постоянный
Частота кадров                           : 29,970 кадров/сек
Цветовое пространство                    : YUV
Субдискретизация насыщенности            : 4:2:0
Битовая глубина                          : 8 бит
Тип развёртки                            : Прогрессивная
Метод сжатия                             : С потерями
Бит/(Пиксели*Кадры)                      : 0.117
Размер потока                            : 188 Мбайт (82%)
Библиотека кодирования                   : DivX 5.0.5 (UTC 2003-04-24)
Язык                                     : Japanese
Default                                  : Да
Forced                                   : Нет

Аудио #1
Идентификатор                            : 2
Формат                                   : Vorbis
Параметр Floor формата                   : 1
Идентификатор кодека                     : A_VORBIS
Продолжительность                        : 24 м.
Вид битрейта                             : Переменный
Битрейт                                  : 104 Кбит/сек
Каналы                                   : 2 канала
Частота                                  : 44,1 КГц
Метод сжатия                             : С потерями
Размер потока                            : 18,2 Мбайт (8%)
Библиотека кодирования                   : libVorbis 1.0 (UTC 2002-07-17)
Язык                                     : Japanese
Default                                  : Да
Forced                                   : Нет

Аудио #2
Идентификатор                            : 3
Формат                                   : Vorbis
Параметр Floor формата                   : 1
Идентификатор кодека                     : A_VORBIS
Продолжительность                        : 24 м.
Вид битрейта                             : Переменный
Битрейт                                  : 104 Кбит/сек
Каналы                                   : 2 канала
Частота                                  : 44,1 КГц
Метод сжатия                             : С потерями
Размер потока                            : 18,2 Мбайт (8%)
Библиотека кодирования                   : libVorbis 1.0 (UTC 2002-07-17)
Язык                                     : English
Default                                  : Нет
Forced                                   : Нет

Текст #1
Идентификатор                            : 4
Формат                                   : UTF-8
Идентификатор кодека                     : S_TEXT/UTF8
Идентификатор кодека/Информация          : UTF-8 Plain Text
Язык                                     : Russian
Default                                  : Да
Forced                                   : Нет

Текст #2
Идентификатор                            : 5
Формат                                   : UTF-8
Идентификатор кодека                     : S_TEXT/UTF8
Идентификатор кодека/Информация          : UTF-8 Plain Text
Язык                                     : English
Default                                  : Нет
Forced                                   : Нет

Меню
00:00:00.000                             : Chapter 1
00:01:31.000                             : Chapter 2
00:13:00.867                             : Chapter 3
00:22:33.300                             : Chapter 4
00:22:54.533                             : Chapter 5
00:24:24.666                             : Chapter 6
• 1 Космический пират капитан Харлок [ТВ] - ТВ (42 эп.), адаптация манги, 1978
• 2 Капитан Харлок: Тайна Аркадии - к/ф, sideoff (ответвление сюжета), 1978
• 3 Аркадия моей юности - Фильм - п/ф, предыстория, 1982
• 4 Аркадия моей юности [ТВ] - ТВ (22 эп.), адаптация манги, 1982
• 5 Сага о Харлоке: Кольцо Нибелунга - OVA (6 эп.), адаптация манги, 1999
• 6 Космический воин Зеро - ТВ (13 эп. + 2 спэшла), sideoff (вариант развития), 2001 (эта раздача)
• 7 Бесконечная одиссея капитана Харлока - OVA (13 эп.), sideoff (вариант развития), 2002
• 8 Ган Фронтир - ТВ (13 эп.), вариант предыстории, 2002
• 9 Captain Harlock (2013) - п/ф, адаптация манги, 2013


Вселенная Мацумото Лэйдзи
Official page || ANN || AniDB || MAL || World Art





Время раздачи: 24/7
[NNM-Club.ru]_Cosmo Warrior Zero.torrent
 Торрент: Платиновая раздача  Зарегистрирован
 
Скачать


Примагнититься
 Зарегистрирован:   30 Июн 2013 18:06:47
 Размер:   3,31 GB  (
 Рейтинг:   4,6 (Голосов: 21)
 Поблагодарили:   26
 Проверка:   Оформление проверено модератором 30 Июн 2013 18:57:56
Как cкачать  ·  Как раздать  ·  Правильно оформить  ·  Поднять ратио!  
Показать сообщения:   
Начать новую тему   Ответить на тему    Торрент-трекер NNM-Club -> Аниме с субтитрами -> Аниме (SD) Часовой пояс: GMT + 3
Страница 1 из 1