Классический форум-трекер
canvas not supported
Нас вместе: 4 104 790

Kasei Ryoudan DNA Sights 999.9 / Fire Force DNA Sights 999.9 / Огненный отряд ДНК Тип 999.9 [1998, MV] DVDRip 480p raw


 
 
RSS
Начать новую тему   Ответить на тему    Торрент-трекер NNM-Club -> Аниме с субтитрами -> Аниме (SD)
Автор Сообщение
loki ®
Стаж: 9 лет 2 мес.
Сообщений: 4729
Ratio: 62,858
Поблагодарили: 37398
100%
Откуда: Днепр
roody.gif

Kasei Ryoudan DNA Sights 999.9
Fire Force DNA Sights 999.9
Огненный отряд ДНК Тип 999.9

Жанр: приключения, фантастика, драма
Тип: короткометражный фильм
Продолжительность: 50 мин.
Дата премьеры / период выхода: 02.11.1998
Производство/студия:
Автор оригинала: Мацумото Лэйдзи
Режиссер: Кодзима Масаюки
Качество видео: DVDRip
Релиз/Автор рипа: Dinamic Planning
Контейнер: MKV
Видео: MPEG4/DivX 5
Битрейт видео: 2740 Kbps; 25 fps
Размер кадра: 640x480 (4:3)
Аудио:
JAP; AC3; 48.0 KHz; 2ch; 192 Kbps
Субтитры:
RUS; рабингранат SRT (int)

Описание:
Мелоу, неведомая сила из глубин космоса отправляет спасать Землю, предварительно направив туда комету, после столкновения с которой цивилизация рухнула и на её обломках власть захватили торгаши.
Код:
Общее
Уникальный идентификатор                 : 243693486781755434394866988810958576507 (0xB755A88944139CEFBFF6A7470B949B7B)
Полное имя                               : Fire Force DNA Sights 999.9 OVA.mkv
Формат                                   : Matroska
Версия формата                           : Version 4 / Version 2
Размер файла                             : 1023 Мбайт
Продолжительность                        : 48 м.
Общий поток                              : 2933 Кбит/сек
Дата кодирования                         : UTC 2013-06-30 16:48:54
Программа кодирования                    : mkvmerge v6.2.0 ('Promised Land') built on Apr 28 2013 12:22:01
Библиотека кодирования                   : libebml v1.3.0 + libmatroska v1.4.0

Видео
Идентификатор                            : 1
Формат                                   : MPEG-4 Visual
Параметр BVOP формата                    : Да
Параметр QPel формата                    : Нет
Параметр GMC формата                     : Без точки перехода
Параметр матрицы формата                 : Default (H.263)
Идентификатор кодека                     : V_MS/VFW/FOURCC / DX50
Идентификатор кодека/Подсказка           : DivX 5
Продолжительность                        : 48 м.
Битрейт                                  : 2682 Кбит/сек
Ширина                                   : 640 пикселей
Высота                                   : 480 пикселей
Соотношение сторон                       : 4:3
Режим частоты кадров                     : Постоянный
Частота кадров                           : 25,000 кадров/сек
Цветовое пространство                    : YUV
Субдискретизация насыщенности            : 4:2:0
Битовая глубина                          : 8 бит
Тип развёртки                            : Прогрессивная
Метод сжатия                             : С потерями
Бит/(Пиксели*Кадры)                      : 0.349
Размер потока                            : 935 Мбайт (91%)
Библиотека кодирования                   : DivX 6.8.0 (UTC 2007-12-04)
Default                                  : Да
Forced                                   : Нет

Аудио
Идентификатор                            : 2
Формат                                   : AC-3
Формат/Информация                        : Audio Coding 3
Расширение режима                        : CM (complete main)
Параметр Endianness формата              : Big
Идентификатор кодека                     : A_AC3
Продолжительность                        : 48 м.
Вид битрейта                             : Постоянный
Битрейт                                  : 192 Кбит/сек
Каналы                                   : 2 канала
Расположение каналов                     : Front: L R
Частота                                  : 48,0 КГц
Битовая глубина                          : 16 бит
Метод сжатия                             : С потерями
Размер потока                            : 67,0 Мбайт (7%)
Язык                                     : Japanese
Default                                  : Да
Forced                                   : Нет

Текст
Идентификатор                            : 3
Формат                                   : UTF-8
Идентификатор кодека                     : S_TEXT/UTF8
Идентификатор кодека/Информация          : UTF-8 Plain Text
Заголовок                                : рабингранат
Язык                                     : Russian
Default                                  : Да
Forced                                   : Нет


Вселенная Мацумото Лэйдзи
ANN || AniDB || MAL || World Art

Время раздачи: 24/7
[NNM-Club.ru]_Fire Force DNA Sights 999.9 OVA.mkv.torrent
 Торрент: Платиновая раздача  Зарегистрирован
 
Скачать


Примагнититься
 Зарегистрирован:   30 Июн 2013 20:21:50
 Размер:   1023 MB  (
 Рейтинг:   4,6 (Голосов: 19)
 Поблагодарили:   27
 Проверка:   Оформление проверено модератором 30 Июн 2013 20:33:26
Как cкачать  ·  Как раздать  ·  Правильно оформить  ·  Поднять ратио!  
Onee_Tsume
 
Стаж: 7 лет 10 мес.
Сообщений: 227
Ratio: 10,139
100%
Что за "подруга" на обложке?
Ни на Мейтел, ни на Эмеральду, ни уж тем более на Кей, она ну совсем не похожа.
loki ®
Стаж: 9 лет 2 мес.
Сообщений: 4729
Ratio: 62,858
Поблагодарили: 37398
100%
Откуда: Днепр
roody.gif
Onee_Tsume
Мелоу. Ты, я смотрю, жаждешь споллеров.))
рабингранат писал(а):

Сюжет практически библейский: некую Мелоу неведомая сила из глубин космоса (невидимая рука рынка) отправляет спасать Землю, предварительно направив туда комету, после столкновения с которой цивилизация рухнула и на её обломках власть захватили торгаши (банда «Trader Force»). Ну чисто американский подход: пчёлы против мёда, то есть сначала всё разбомбим (изгоним из рая), а потом будем спасать - всё как в Библии, именно так и захватывают новые рынки!
И вот в 2024 году милый мальчуган Тетсуро Дайба, оставшийся сиротой (его родители, занимавшиеся самогоноварением, погибли при столкновении Земли с кометой), после случайной встречи с Мелоу являет чудо: неожиданно даже для себя самого проявляет талант пилота и угоняет у «Trader Force» боевой истребитель (уже одного только этого достаточно чтобы фильм никогда не показали у нас - ну уж очень это напоминает власти угон МИГ-25 в Японию Виктором Беленко в 1976 году. Только не надо думать что у них всё иначе: когда в прямом эфире «Голоса Америки» попросили поставить песню Дина Рида, ответ был: «Нет такого певца!») и благополучно приземляется на нём в саду своего хорошего знакомого-доктора.
Доктор, выпив для алиби бутылочку сакэ (господа отаку, кто знает марку - напишите, я тоже такую хочу!), объявляет себя профессором оборонного НИИ (вот ведь оборотень без погон!) и не только помогает ему скрыться, но и обеспечивает подружкой на дорожку.
Королева торгашей Фотон их всё-таки захватывает и предлагает им... тоже спасать Землю.
В результате пришлось спасать их самих сначала милому полосатому котику Ми, а затем и самому Харлоку (для тех кто не знает: это наш всемирно известный правозащитник) на персональном пепелаце.
А Землю так никто и не спас, и забулдыга-профессор вместе со своими сотрудниками остались без своего института и без работы (это об утечке мозгов за границу).
Onee_Tsume
 
Стаж: 7 лет 10 мес.
Сообщений: 227
Ratio: 10,139
100%
vados loki писал(а): Перейти к сообщению
Мелоу. Ты, я смотрю, жаждешь споллеров.

Не, не до спойлеров мне сейчас. Я просто эту диву раньше не видел. Вот и интересуюсь. На скринах то, ея, нэмаэ. (Хи-хи, в "Харлоке" убила тапком желтоглазая подруга "зеленого змия").
Ох-хо, местечка бы мне ещё толику малую (есть внешник полунабитый/полуубитый террабайтник) но после пары случаев полной его реставрации я на него торренты загонять не решаюсь). А на винте 30% ограничение места, держит как тов. Ежов. :убится ап стену:
loki ®
Стаж: 9 лет 2 мес.
Сообщений: 4729
Ratio: 62,858
Поблагодарили: 37398
100%
Откуда: Днепр
roody.gif
Onee_Tsume писал(а): Перейти к сообщению
..На скринах то, ея, нэмаэ...

Есть, но из далека:
На втором в стеклянной кегле. Ну и в кратере она.
Onee_Tsume
 
Стаж: 7 лет 10 мес.
Сообщений: 227
Ratio: 10,139
100%
vados loki писал(а): Перейти к сообщению
На втором в стеклянной кегле. Ну и в кратере она.

Она там так замечательно видна. :кругом голова: А за этот скрин, отдельное спасибо. Глаза то какие. Чем не 3D?
Показать сообщения:   
Начать новую тему   Ответить на тему    Торрент-трекер NNM-Club -> Аниме с субтитрами -> Аниме (SD) Часовой пояс: GMT + 3
Страница 1 из 1