Классический форум-трекер
canvas not supported
Нас вместе: 4 103 798

Ginga Tetsudo 999: Eternal Fantasy / Galaxy Express 999: Eternal Fantasy / Галактический экспресс 999: Вечная фантазия [1998, MV] BDRip 720p raw


 
 
RSS
Начать новую тему   Ответить на тему    Торрент-трекер NNM-Club -> Аниме с субтитрами -> Аниме (HD)
Автор Сообщение
gdfhs6t6we ®
Стаж: 8 лет 11 мес.
Сообщений: 675
Ratio: 780,298
Поблагодарили: 12359
100%
albania.gif
銀河鉄道999 エターナルファンタジー / Ginga Tetsudo 999: Eternal Fantasy
Galaxy Express 999: Eternal Fantasy / Галактический экспресс 999: Вечная фантазия

Жанр: Фантастика, приключения, драма
Тип: Короткометражный фильм
Продолжительность: 54 мин.
Дата премьеры / период выхода: 07.03.1998
Режиссер: Уда Коносукэ
Автор оригинала: Мацумото Лэйдзи

Производство/студия:

Качество видео: BDRip
Видео: AVC, 1280x720, 23,976 кадра/сек, ~4000 кбит/с
Аудио: AC-3, 48 КГц, 4 ch, ~640 кбит/с Звук: японский.
Тип субтитров: русские подключаемые, английские в контейнере. Перевод: Nomad

Описание: По началу кажеться что все банально, потеря близкого человека оставит молодого человека ни с чем. Он даже не сможет похоронить свою мать так как ее тело станет боевым трофеем киборга-охотника и будет висеть на стене словно чучело. Да вот такое оно будущее где люди стремяться модифицировать свои тела или полностью сделать их искуственными взамен обретя бессмертие. И что остается юноше делать, одержимого местью, чтобы поквитаться с врагом, одной жизни не хватит. Копить всю жизнь на исскуственное тело или самому отправиться на край галактики где делают такое превращение - эта возможность у него появляется. Галактический экспресс - космический челнок сделанный в ретро стиле начало ХХ века, этакая ностальгия по прошлому, безвозвратно утерянному. Ведь на борту его люди делающие шаг к бесконечности жизни и поезд место где ты оставляешь частичку себя, потому что на последней остановке назад пути не будет.
Фильм затрагивающий аспекты психологии любого человека в любом возрасте, ведь каждый когда то думал в детстве что бессмертен, а понимание того что смерть рано или поздно настигнет, повергает в шок. Но что такое бесконечность бытия в сравнении с коротким периодом с названием жизнь, где каждый миг существования поневоле приходиться ценить, потому что большего нам не дано и мы не боги в конце концов чтобы жить бесконечно. Вот и наш герой с каждой остановкой галактического экспресса попадает в различные авантюры, и вскоре приходит к переосмысливанию ценностей.
Код:

Общее
Уникальный идентификатор                 : 192745091565135214970985684306524746738 (0x91015AB68B2DF46EA9EC48E290BDB3F2)
Полное имя                               : S:\torrent\anime\Galaxy Express\Galaxy Express 999 Eternal Fantasy\Galaxy Express 999 Eternal Fantasy.mkv
Формат                                   : Matroska
Версия формата                           : Version 2
Размер файла                             : 1,77 Гбайт
Продолжительность                        : 54 м.
Общий поток                              : 4642 Кбит/сек
Дата кодирования                         : UTC 2013-07-01 14:33:56
Программа кодирования                    : mkvmerge v5.8.0 ('No Sleep / Pillow') built on Sep  2 2012 15:37:04
Библиотека кодирования                   : libebml v1.2.3 + libmatroska v1.3.0

Видео
Идентификатор                            : 1
Формат                                   : AVC
Формат/Информация                        : Advanced Video Codec
Профиль формата                          : High@L5.1
Параметр CABAC формата                   : Да
Параметр ReFrames формата                : 16 кадров
Идентификатор кодека                     : V_MPEG4/ISO/AVC
Продолжительность                        : 54 м.
Битрейт                                  : 4000 Кбит/сек
Ширина                                   : 1280 пикселей
Высота                                   : 720 пикселей
Соотношение сторон                       : 16:9
Режим частоты кадров                     : Постоянный
Частота кадров                           : 23,976 кадра/сек
Цветовое пространство                    : YUV
Субдискретизация насыщенности            : 4:2:0
Битовая глубина                          : 8 бит
Тип развёртки                            : Прогрессивная
Бит/(Пиксели*Кадры)                      : 0.181
Размер потока                            : 1,49 Гбайт (84%)
Заголовок                                : Galaxy Express 999: Eternal Fantasy [1998]
Библиотека кодирования                   : x264 core 60 r900 a9af942
Настройки программы                      : cabac=1 / ref=16 / deblock=1:1:1 / analyse=0x3:0x113 / me=umh / subme=7 / brdo=1 / mixed_ref=1 / me_range=16 / chroma_me=1 / trellis=2 / 8x8dct=1 / cqm=0 / deadzone=21,11 / chroma_qp_offset=0 / threads=3 / nr=0 / decimate=1 / mbaff=0 / bframes=16 / b_pyramid=1 / b_adapt=1 / b_bias=0 / direct=3 / wpredb=1 / bime=1 / keyint=250 / keyint_min=25 / scenecut=40(pre) / rc=2pass / bitrate=4000 / ratetol=1.0 / rceq='blurCplx^(1-qComp)' / qcomp=1.00 / qpmin=10 / qpmax=51 / qpstep=4 / cplxblur=20.0 / qblur=0.5 / ip_ratio=1.40 / pb_ratio=1.30 / aq=2:1.00
Default                                  : Да
Forced                                   : Нет

Аудио
Идентификатор                            : 2
Формат                                   : AC-3
Формат/Информация                        : Audio Coding 3
Расширение режима                        : CM (complete main)
Параметр Endianness формата              : Big
Идентификатор кодека                     : A_AC3
Продолжительность                        : 54 м.
Вид битрейта                             : Постоянный
Битрейт                                  : 640 Кбит/сек
Каналы                                   : 4 канала
Расположение каналов                     : Front: L C R, Side: C
Частота                                  : 48,0 КГц
Битовая глубина                          : 16 бит
Метод сжатия                             : С потерями
Размер потока                            : 249 Мбайт (14%)
Заголовок                                : Original
Язык                                     : Японский
Default                                  : Нет
Forced                                   : Нет

Меню
00:00:00.054                             : en:00:00:00.054
#01 Галактический экспресс 999 [ТВ] - ТВ (113 эп.), адаптация манги, 1978
#02 Галактический экспресс 999 - Фильм - п/ф, адаптация манги, 1979
#03 Glass no Clair - Ginga Tetsudo 999 - к/ф, ремейк 3-го эп. оригинального сериала, 1980
#04 Ginga Tetsudou 999: Kimi wa Senshi no You ni Ikirareru ka!! - ТВ-спэшл (1 эп.), ремейк 12-13 эп. оригинального сериала, 1979
#05 Ginga Tetsudo 999: Eien no Tabibito Emeraldas - ТВ-спэшл (1 эп.), ремейк 22-го эп. оригинального сериала, 1980
#06 Ginga Tetsudo 999: Kimi wa Haha no You ni Aiseru ka!! - ТВ-спэшл (1 эп.), ремейк 51-52 эп. оригинального сериала, 1980
#07 Sayonara Ginga Tetsudou 999: Andromeda Shuuchakueki - п/ф, продолжение оригинального сериала, 1981
#08 Галактический экспресс 999: Вечная фантазия - к/ф, продолжение, 1998
#09 Kasei Ryoudan DNA Sights 999.9 - к/ф, предыстория оригинального сериала, 1998
#10 Галактические Железные Дороги [ТВ-1] - ТВ (26 эп.), продолжение оригинального сериала, 2003
#11 Галактические Железные Дороги OVA - OVA (4 эп.), продолжение, 2007
#12 Галактические Железные Дороги [ТВ-2] - ТВ (24 эп.), продолжение, 2006
#13 Ginga Tetsudou 999: Diamond Ring no Kanata e - к/ф, дополнение, 2009
Ссылки:
Ani-DB ::: World Art
Вселенная Мацумото Лэйдзи на NNM-club
Скриншоты:
Время раздачи: По мере возможности
[NNM-Club.ru]_Galaxy Express 999 Eternal Fantasy.torrent
 Торрент: Платиновая раздача  Зарегистрирован
 
Скачать


Примагнититься
 Зарегистрирован:   01 Июл 2013 22:05:49
 Размер:   1,77 GB  (
 Рейтинг:   4,4 (Голосов: 18)
 Поблагодарили:   30
 Проверка:   Оформление проверено модератором 01 Июл 2013 22:37:44
Как cкачать  ·  Как раздать  ·  Правильно оформить  ·  Поднять ратио!  
Показать сообщения:   
Начать новую тему   Ответить на тему    Торрент-трекер NNM-Club -> Аниме с субтитрами -> Аниме (HD) Часовой пояс: GMT + 3
Страница 1 из 1