Классический форум-трекер
canvas not supported
Нас вместе: 4 104 419

Sayonara Ginga Tetsudou 999: Andromeda Shuuchakueki / Adieu Galaxy Express 999 / Прощай, Галактический экспресс 999: Терминал Андромеды [1981, MV] BDRip 720p raw


 
 
RSS
Начать новую тему   Ответить на тему    Торрент-трекер NNM-Club -> Аниме с субтитрами -> Аниме (HD)
Автор Сообщение
gdfhs6t6we ®
Стаж: 8 лет 11 мес.
Сообщений: 675
Ratio: 780,298
Поблагодарили: 12361
100%
albania.gif
さよなら銀河鉄道999 アンドロメダ終着駅
Sayonara Ginga Tetsudou 999: Andromeda Shuuchakueki
Goodbye Galaxy Railway 999: Andromeda Terminal
Прощай, Галактический экспресс 999: Терминал Андромеды

Жанр: Фантастика, приключения, драма
Тип: Полнометражный фильм
Продолжительность: 130 мин.
Дата премьеры / период выхода: 01.08.1981
Режиссер: Ринтаро
Автор оригинала: Мацумото Лэйдзи

Производство/студия:

Качество видео: BDRip
Видео: AVC, 1280x720, 23,976 кадра/сек, ~4300 кбит/с
Аудио: AC-3, 48 КГц, 6 ch, ~1448 кбит/с Звук: японский.
Тип субтитров: русские подключаемые. Перевод: LEXX$Y$

Описание: В мультфильме показаны приключения мальчика Тэцуро, который уничтожает механических людей, желая отомстить за смерть родителей. Механические люди овладели Вселенной и насильно правят ею. Тэцуро, мальчик из захолустного городка, попадает в центр ультрасовременного города, где находится планетарная станция «Мегаполис». От этой станции отходит «Экспресс-Галактика-999», на который пытается попасть Тэцуро. Он крадет билет и его пытается поймать полиция механических людей. Тэцуро неожиданно спасает таинственная Мейтел, с которой он будет вместе путешествовать в «Экспресс-Галактике-999». Мальчик хочет отомстить механическим людям, в частности графу Мекке, за смерть матери, убитой во время охоты на людей. Ему удаётся убить Графа Мекку, но Тэцуро принимает решение поехать на планету Андромеду, где находится фабрика по производству человекоподобных механических людей. По приезду на Адромеду их с Мейтел ожидают еще более захватывающие приключения...
Код:

Общее
Уникальный идентификатор                 : 197835973452233907992454449843523526899 (0x94D5D291A51B5D7CBC41B80260D3A0F3)
Полное имя                               : S:\torrent\anime\Galaxy Express\Goodbye Galaxy Railway 999 Andromeda Terminal\Goodbye Galaxy Railway 999 Andromeda Terminal.mkv
Формат                                   : Matroska
Версия формата                           : Version 2
Размер файла                             : 4,31 Гбайт
Продолжительность                        : 2 ч. 10 м.
Общий поток                              : 4749 Кбит/сек
Дата кодирования                         : UTC 2013-07-01 17:56:04
Программа кодирования                    : mkvmerge v5.8.0 ('No Sleep / Pillow') built on Sep  2 2012 15:37:04
Библиотека кодирования                   : libebml v1.2.3 + libmatroska v1.3.0

Видео
Идентификатор                            : 1
Формат                                   : AVC
Формат/Информация                        : Advanced Video Codec
Профиль формата                          : High@L4.1
Параметр CABAC формата                   : Да
Параметр ReFrames формата                : 9 кадров
Режим смешивания                         : Header stripping
Идентификатор кодека                     : V_MPEG4/ISO/AVC
Продолжительность                        : 2 ч. 10 м.
Битрейт                                  : 4300 Кбит/сек
Ширина                                   : 1280 пикселей
Высота                                   : 720 пикселей
Соотношение сторон                       : 16:9
Режим частоты кадров                     : Постоянный
Частота кадров                           : 23,976 кадра/сек
Цветовое пространство                    : YUV
Субдискретизация насыщенности            : 4:2:0
Битовая глубина                          : 8 бит
Тип развёртки                            : Прогрессивная
Бит/(Пиксели*Кадры)                      : 0.195
Размер потока                            : 3,82 Гбайт (89%)
Заголовок                                : さよなら銀河鉄道999 -アンドロメダ終着駅-
Библиотека кодирования                   : x264 core 78 r1302 6169a3f
Настройки программы                      : cabac=1 / ref=9 / deblock=1:0:0 / analyse=0x3:0x133 / me=umh / subme=9 / psy=1 / psy_rd=0.8:0.0 / mixed_ref=1 / me_range=32 / chroma_me=1 / trellis=0 / 8x8dct=1 / cqm=2 / deadzone=21,11 / chroma_qp_offset=-2 / threads=6 / nr=0 / decimate=0 / mbaff=0 / constrained_intra=0 / bframes=6 / b_pyramid=0 / b_adapt=2 / b_bias=0 / direct=3 / wpredb=1 / keyint=240 / keyint_min=4 / scenecut=40 / rc_lookahead=70 / rc=2pass / mbtree=1 / bitrate=4300 / ratetol=1.0 / qcomp=0.70 / qpmin=10 / qpmax=28 / qpstep=4 / cplxblur=20.0 / qblur=0.5 / vbv_maxrate=25000 / vbv_bufsize=25000 / ip_ratio=1.40 / aq=1:1.00
Язык                                     : Японский
Default                                  : Да
Forced                                   : Нет

Аудио
Идентификатор                            : 2
Формат                                   : AC-3
Формат/Информация                        : Audio Coding 3
Расширение режима                        : CM (complete main)
Параметр Endianness формата              : Big
Режим смешивания                         : Header stripping
Идентификатор кодека                     : A_AC3
Продолжительность                        : 2 ч. 10 м.
Вид битрейта                             : Постоянный
Битрейт                                  : 448 Кбит/сек
Каналы                                   : 6 каналов
Расположение каналов                     : Front: L C R, Side: L R, LFE
Частота                                  : 48,0 КГц
Битовая глубина                          : 16 бит
Метод сжатия                             : С потерями
Размер потока                            : 417 Мбайт (9%)
Язык                                     : Японский
Default                                  : Да
Forced                                   : Нет
#01 Галактический экспресс 999 [ТВ] - ТВ (113 эп.), адаптация манги, 1978
#02 Галактический экспресс 999 - Фильм - п/ф, адаптация манги, 1979
#03 Glass no Clair - Ginga Tetsudo 999 - к/ф, ремейк 3-го эп. оригинального сериала, 1980
#04 Ginga Tetsudou 999: Kimi wa Senshi no You ni Ikirareru ka!! - ТВ-спэшл (1 эп.), ремейк 12-13 эп. оригинального сериала, 1979
#05 Ginga Tetsudo 999: Eien no Tabibito Emeraldas - ТВ-спэшл (1 эп.), ремейк 22-го эп. оригинального сериала, 1980
#06 Ginga Tetsudo 999: Kimi wa Haha no You ni Aiseru ka!! - ТВ-спэшл (1 эп.), ремейк 51-52 эп. оригинального сериала, 1980
#07 Sayonara Ginga Tetsudou 999: Andromeda Shuuchakueki - п/ф, продолжение оригинального сериала, 1981
#08 Галактический экспресс 999: Вечная фантазия - к/ф, продолжение, 1998
#09 Kasei Ryoudan DNA Sights 999.9 - к/ф, предыстория оригинального сериала, 1998
#10 Галактические Железные Дороги [ТВ-1] - ТВ (26 эп.), продолжение оригинального сериала, 2003
#11 Галактические Железные Дороги OVA - OVA (4 эп.), продолжение, 2007
#12 Галактические Железные Дороги [ТВ-2] - ТВ (24 эп.), продолжение, 2006
#13 Ginga Tetsudou 999: Diamond Ring no Kanata e - к/ф, дополнение, 2009
Ссылки:
Ani-DB ::: World Art
Вселенная Мацумото Лэйдзи на NNM-club
Скриншоты:
Время раздачи: По мере возможности
[NNM-Club.ru]_Goodbye Galaxy Railway 999 Andromeda Terminal.torrent
 Торрент: Платиновая раздача  Зарегистрирован
 
Скачать


Примагнититься
 Зарегистрирован:   01 Июл 2013 22:12:42
 Размер:   4,31 GB  (
 Рейтинг:   4,5 (Голосов: 22)
 Поблагодарили:   38
 Проверка:   Оформление проверено модератором 01 Июл 2013 22:38:51
Как cкачать  ·  Как раздать  ·  Правильно оформить  ·  Поднять ратио!  
Показать сообщения:   
Начать новую тему   Ответить на тему    Торрент-трекер NNM-Club -> Аниме с субтитрами -> Аниме (HD) Часовой пояс: GMT + 3
Страница 1 из 1