Классический форум-трекер
canvas not supported
Нас вместе: 4 079 179

Менталист / The Mentalist (5-й сезон, серии 1-22 (22)) (2012-2013) WEB-DLRip (ТВ-3)


Страницы:  1, 2  След. 
 
RSS
Начать новую тему   Ответить на тему    Торрент-трекер NNM-Club -> Зарубежные сериалы -> Менталист / The Mentalist ; Теория Лжи / Lie To Me
Автор Сообщение
WOLF 80 ®
Uploader 100+
Стаж: 10 лет 2 мес.
Сообщений: 480
Ratio: 3902,785
Раздал: 156,9 TB
Поблагодарили: 30371
100%
Откуда: Санкт-Петербург
russia.gif
Менталист / The Mentalist
(5-й сезон, серии 1-22 (22)) (2012-2013) WEB-DLRip ТВ-3

Русское название: Менталист
Оригинальное название: The Mentalist
Год выпуска: 2012-2013
Жанр: Детектив

Перевод:Профессиональный (полное дублирование) - канал ТВ3



Дата мировой премьеры: с 30.09.2012 по 05.05.2013
Дата российской премьеры: с 03.07.2013 по 11.07.2013

Режиссер: Рэндолл Зиск, Крис Лонг, Антон Кроппер

Актеры: Саймон Бейкер, Робин Танни, Тим Кенг, Овайн Йомэн, Аманда Риджетти, Онжаню Эллис, Грегори Итцин, Прюитт Тэйлор Винс, Майкл Гэстон, Эрик Винтер

Описание фильма: Патрик Джейн — детектив и независимый консультант из Калифорнийского Бюро Расследований (КБР), он использует свои отточенные, как лезвие, навыки наблюдения для раскрытия тяжких преступлений. В самом Бюро Джейн известен за частые нарушения протокола, а также за его звездное прошлое: он работал медиумом, однако теперь сам признает, что симулировал паранормальные способности. Роль Джейна в раскрытии целой серии загадочных преступлений высоко ценится коллегами. Но суровый старший агент Тереза Лисбон против того, чтоб Джейн работал с ее отрядом, и то вынужденно признает его успехи, то критикует его за театральность, нарциссизм и отсутствие границ.
Общее
Полное имя : E:\UPLOADED\СЕРИАЛЫ\MENTALIST\Менталист Rip\Rip Менталист 5 сезон\01. Багряный билет (The Crimson Ticket).avi
Формат : AVI
Формат/Информация : Audio Video Interleave
Размер файла : 547 Мбайт
Продолжительность : 41 м.
Общий поток : 1845 Кбит/сек
Программа кодирования : VirtualDubMod 1.5.10.2 (build 2540/release)
Библиотека кодирования : VirtualDubMod build 2540/release

Видео
Идентификатор : 0
Формат : MPEG-4 Visual
Профиль формата : Simple@L1
Параметр BVOP формата : Нет
Параметр QPel формата : Нет
Параметр GMC формата : Без точки перехода
Параметр матрицы формата : Default (H.263)
Идентификатор кодека : DX50
Идентификатор кодека/Подсказка : DivX 5
Продолжительность : 41 м.
Битрейт : 1644 Кбит/сек
Ширина : 720 пикселей
Высота : 400 пикселей
Соотношение сторон : 16:9
Частота кадров : 23,976 кадра/сек
Цветовое пространство : YUV
Субдискретизация насыщенности : 4:2:0
Битовая глубина : 8 бит
Тип развёртки : Чересстрочная
Порядок развёртки : Верхнее поле первое
Метод сжатия : С потерями
Бит/(Пиксели*Кадры) : 0.238
Размер потока : 487 Мбайт (89%)
Библиотека кодирования : Lavc51.44.0

Аудио
Идентификатор : 1
Формат : AC-3
Формат/Информация : Audio Coding 3
Расширение режима : CM (complete main)
Параметр Endianness формата : Big
Идентификатор кодека : 2000
Продолжительность : 41 м.
Вид битрейта : Постоянный
Битрейт : 192 Кбит/сек
Каналы : 2 канала
Расположение каналов : Front: L R
Частота : 48,0 КГц
Битовая глубина : 16 бит
Метод сжатия : С потерями
Размер потока : 56,9 Мбайт (10%)
Выравнивание : Разделение по промежуткам
Продолжительность промежутка : 42 мс. (1,00 видеокадр)
Время предзагрузки промежутка : 500 мс.
Общее
Полное имя : E:\UPLOADED\СЕРИАЛЫ\MENTALIST\Менталист Rip\Rip Менталист 5 сезон\02. Вишня дьявола (Devil's Cherry).avi
Формат : AVI
Формат/Информация : Audio Video Interleave
Размер файла : 565 Мбайт
Продолжительность : 42 м.
Общий поток : 1841 Кбит/сек
Программа кодирования : VirtualDubMod 1.5.10.2 (build 2540/release)
Библиотека кодирования : VirtualDubMod build 2540/release

Видео
Идентификатор : 0
Формат : MPEG-4 Visual
Профиль формата : Simple@L1
Параметр BVOP формата : Нет
Параметр QPel формата : Нет
Параметр GMC формата : Без точки перехода
Параметр матрицы формата : Default (H.263)
Идентификатор кодека : DX50
Идентификатор кодека/Подсказка : DivX 5
Продолжительность : 42 м.
Битрейт : 1639 Кбит/сек
Ширина : 720 пикселей
Высота : 400 пикселей
Соотношение сторон : 16:9
Частота кадров : 23,976 кадра/сек
Цветовое пространство : YUV
Субдискретизация насыщенности : 4:2:0
Битовая глубина : 8 бит
Тип развёртки : Чересстрочная
Порядок развёртки : Верхнее поле первое
Метод сжатия : С потерями
Бит/(Пиксели*Кадры) : 0.237
Размер потока : 503 Мбайт (89%)
Библиотека кодирования : Lavc51.44.0

Аудио
Идентификатор : 1
Формат : AC-3
Формат/Информация : Audio Coding 3
Расширение режима : CM (complete main)
Параметр Endianness формата : Big
Идентификатор кодека : 2000
Продолжительность : 42 м.
Вид битрейта : Постоянный
Битрейт : 192 Кбит/сек
Каналы : 2 канала
Расположение каналов : Front: L R
Частота : 48,0 КГц
Битовая глубина : 16 бит
Метод сжатия : С потерями
Размер потока : 58,9 Мбайт (10%)
Выравнивание : Разделение по промежуткам
Продолжительность промежутка : 42 мс. (1,00 видеокадр)
Время предзагрузки промежутка : 500 мс.
Общее
Полное имя : E:\UPLOADED\СЕРИАЛЫ\MENTALIST\Менталист Rip\Rip Менталист 5 сезон\03. Ни одного кровавого цента (Not One Red Cent).avi
Формат : AVI
Формат/Информация : Audio Video Interleave
Размер файла : 552 Мбайт
Продолжительность : 42 м.
Общий поток : 1797 Кбит/сек
Программа кодирования : VirtualDubMod 1.5.10.2 (build 2540/release)
Библиотека кодирования : VirtualDubMod build 2540/release

Видео
Идентификатор : 0
Формат : MPEG-4 Visual
Профиль формата : Simple@L1
Параметр BVOP формата : Нет
Параметр QPel формата : Нет
Параметр GMC формата : Без точки перехода
Параметр матрицы формата : Default (H.263)
Идентификатор кодека : DX50
Идентификатор кодека/Подсказка : DivX 5
Продолжительность : 42 м.
Битрейт : 1596 Кбит/сек
Ширина : 720 пикселей
Высота : 400 пикселей
Соотношение сторон : 16:9
Частота кадров : 23,976 кадра/сек
Цветовое пространство : YUV
Субдискретизация насыщенности : 4:2:0
Битовая глубина : 8 бит
Тип развёртки : Чересстрочная
Порядок развёртки : Верхнее поле первое
Метод сжатия : С потерями
Бит/(Пиксели*Кадры) : 0.231
Размер потока : 490 Мбайт (89%)
Библиотека кодирования : Lavc51.44.0

Аудио
Идентификатор : 1
Формат : AC-3
Формат/Информация : Audio Coding 3
Расширение режима : CM (complete main)
Параметр Endianness формата : Big
Идентификатор кодека : 2000
Продолжительность : 42 м.
Вид битрейта : Постоянный
Битрейт : 192 Кбит/сек
Каналы : 2 канала
Расположение каналов : Front: L R
Частота : 48,0 КГц
Битовая глубина : 16 бит
Метод сжатия : С потерями
Размер потока : 59,0 Мбайт (11%)
Выравнивание : Разделение по промежуткам
Продолжительность промежутка : 42 мс. (1,00 видеокадр)
Время предзагрузки промежутка : 500 мс.
Общее
Полное имя : E:\UPLOADED\СЕРИАЛЫ\MENTALIST\Менталист Rip\Rip Менталист 5 сезон\04. Кровавая месть (Blood Feud).avi
Формат : AVI
Формат/Информация : Audio Video Interleave
Размер файла : 521 Мбайт
Продолжительность : 41 м.
Общий поток : 1752 Кбит/сек
Программа кодирования : VirtualDubMod 1.5.10.2 (build 2540/release)
Библиотека кодирования : VirtualDubMod build 2540/release

Видео
Идентификатор : 0
Формат : MPEG-4 Visual
Профиль формата : Simple@L1
Параметр BVOP формата : Нет
Параметр QPel формата : Нет
Параметр GMC формата : Без точки перехода
Параметр матрицы формата : Default (H.263)
Идентификатор кодека : DX50
Идентификатор кодека/Подсказка : DivX 5
Продолжительность : 41 м.
Битрейт : 1551 Кбит/сек
Ширина : 720 пикселей
Высота : 400 пикселей
Соотношение сторон : 16:9
Частота кадров : 23,976 кадра/сек
Цветовое пространство : YUV
Субдискретизация насыщенности : 4:2:0
Битовая глубина : 8 бит
Тип развёртки : Чересстрочная
Порядок развёртки : Верхнее поле первое
Метод сжатия : С потерями
Бит/(Пиксели*Кадры) : 0.225
Размер потока : 461 Мбайт (88%)
Библиотека кодирования : Lavc51.44.0

Аудио
Идентификатор : 1
Формат : AC-3
Формат/Информация : Audio Coding 3
Расширение режима : CM (complete main)
Параметр Endianness формата : Big
Идентификатор кодека : 2000
Продолжительность : 41 м.
Вид битрейта : Постоянный
Битрейт : 192 Кбит/сек
Каналы : 2 канала
Расположение каналов : Front: L R
Частота : 48,0 КГц
Битовая глубина : 16 бит
Метод сжатия : С потерями
Размер потока : 57,1 Мбайт (11%)
Выравнивание : Разделение по промежуткам
Продолжительность промежутка : 42 мс. (1,00 видеокадр)
Время предзагрузки промежутка : 500 мс.
Общее
Полное имя : E:\UPLOADED\СЕРИАЛЫ\MENTALIST\Менталист Rip\Rip Менталист 5 сезон\05. Алая заря (Red Dawn).avi
Формат : AVI
Формат/Информация : Audio Video Interleave
Размер файла : 626 Мбайт
Продолжительность : 43 м.
Общий поток : 2025 Кбит/сек
Программа кодирования : VirtualDubMod 1.5.10.2 (build 2540/release)
Библиотека кодирования : VirtualDubMod build 2540/release

Видео
Идентификатор : 0
Формат : MPEG-4 Visual
Профиль формата : Simple@L1
Параметр BVOP формата : Нет
Параметр QPel формата : Нет
Параметр GMC формата : Без точки перехода
Параметр матрицы формата : Default (H.263)
Идентификатор кодека : DX50
Идентификатор кодека/Подсказка : DivX 5
Продолжительность : 43 м.
Битрейт : 1824 Кбит/сек
Ширина : 720 пикселей
Высота : 400 пикселей
Соотношение сторон : 16:9
Частота кадров : 23,976 кадра/сек
Цветовое пространство : YUV
Субдискретизация насыщенности : 4:2:0
Битовая глубина : 8 бит
Тип развёртки : Чересстрочная
Порядок развёртки : Верхнее поле первое
Метод сжатия : С потерями
Бит/(Пиксели*Кадры) : 0.264
Размер потока : 564 Мбайт (90%)
Библиотека кодирования : Lavc51.44.0

Аудио
Идентификатор : 1
Формат : AC-3
Формат/Информация : Audio Coding 3
Расширение режима : CM (complete main)
Параметр Endianness формата : Big
Идентификатор кодека : 2000
Продолжительность : 43 м.
Вид битрейта : Постоянный
Битрейт : 192 Кбит/сек
Каналы : 2 канала
Расположение каналов : Front: L R
Частота : 48,0 КГц
Битовая глубина : 16 бит
Метод сжатия : С потерями
Размер потока : 59,4 Мбайт (9%)
Выравнивание : Разделение по промежуткам
Продолжительность промежутка : 42 мс. (1,00 видеокадр)
Время предзагрузки промежутка : 500 мс.
Общее
Полное имя : E:\UPLOADED\СЕРИАЛЫ\MENTALIST\Менталист Rip\Rip Менталист 5 сезон\06. Отборная вишня (Cherry Picked).avi
Формат : AVI
Формат/Информация : Audio Video Interleave
Размер файла : 504 Мбайт
Продолжительность : 40 м.
Общий поток : 1721 Кбит/сек
Программа кодирования : VirtualDubMod 1.5.10.2 (build 2540/release)
Библиотека кодирования : VirtualDubMod build 2540/release

Видео
Идентификатор : 0
Формат : MPEG-4 Visual
Профиль формата : Simple@L1
Параметр BVOP формата : Нет
Параметр QPel формата : Нет
Параметр GMC формата : Без точки перехода
Параметр матрицы формата : Default (H.263)
Идентификатор кодека : DX50
Идентификатор кодека/Подсказка : DivX 5
Продолжительность : 40 м.
Битрейт : 1520 Кбит/сек
Ширина : 720 пикселей
Высота : 400 пикселей
Соотношение сторон : 16:9
Частота кадров : 23,976 кадра/сек
Цветовое пространство : YUV
Субдискретизация насыщенности : 4:2:0
Битовая глубина : 8 бит
Тип развёртки : Чересстрочная
Порядок развёртки : Верхнее поле первое
Метод сжатия : С потерями
Бит/(Пиксели*Кадры) : 0.220
Размер потока : 445 Мбайт (88%)
Библиотека кодирования : Lavc51.44.0

Аудио
Идентификатор : 1
Формат : AC-3
Формат/Информация : Audio Coding 3
Расширение режима : CM (complete main)
Параметр Endianness формата : Big
Идентификатор кодека : 2000
Продолжительность : 40 м.
Вид битрейта : Постоянный
Битрейт : 192 Кбит/сек
Каналы : 2 канала
Расположение каналов : Front: L R
Частота : 48,0 КГц
Битовая глубина : 16 бит
Метод сжатия : С потерями
Размер потока : 56,2 Мбайт (11%)
Выравнивание : Разделение по промежуткам
Продолжительность промежутка : 42 мс. (1,00 видеокадр)
Время предзагрузки промежутка : 500 мс.
Общее
Полное имя : E:\UPLOADED\СЕРИАЛЫ\MENTALIST\Менталист Rip\Rip Менталист 5 сезон\07. Кровавое - сенсационнее (If It Bleeds, It Leads).avi
Формат : AVI
Формат/Информация : Audio Video Interleave
Размер файла : 598 Мбайт
Продолжительность : 41 м.
Общий поток : 2004 Кбит/сек
Программа кодирования : VirtualDubMod 1.5.10.2 (build 2540/release)
Библиотека кодирования : VirtualDubMod build 2540/release

Видео
Идентификатор : 0
Формат : MPEG-4 Visual
Профиль формата : Simple@L1
Параметр BVOP формата : Нет
Параметр QPel формата : Нет
Параметр GMC формата : Без точки перехода
Параметр матрицы формата : Default (H.263)
Идентификатор кодека : DX50
Идентификатор кодека/Подсказка : DivX 5
Продолжительность : 41 м.
Битрейт : 1802 Кбит/сек
Ширина : 720 пикселей
Высота : 400 пикселей
Соотношение сторон : 16:9
Частота кадров : 23,976 кадра/сек
Цветовое пространство : YUV
Субдискретизация насыщенности : 4:2:0
Битовая глубина : 8 бит
Тип развёртки : Чересстрочная
Порядок развёртки : Верхнее поле первое
Метод сжатия : С потерями
Бит/(Пиксели*Кадры) : 0.261
Размер потока : 538 Мбайт (90%)
Библиотека кодирования : Lavc51.44.0

Аудио
Идентификатор : 1
Формат : AC-3
Формат/Информация : Audio Coding 3
Расширение режима : CM (complete main)
Параметр Endianness формата : Big
Идентификатор кодека : 2000
Продолжительность : 41 м.
Вид битрейта : Постоянный
Битрейт : 192 Кбит/сек
Каналы : 2 канала
Расположение каналов : Front: L R
Частота : 48,0 КГц
Битовая глубина : 16 бит
Метод сжатия : С потерями
Размер потока : 57,3 Мбайт (10%)
Выравнивание : Разделение по промежуткам
Продолжительность промежутка : 42 мс. (1,00 видеокадр)
Время предзагрузки промежутка : 500 мс.
Общее
Полное имя : E:\UPLOADED\СЕРИАЛЫ\MENTALIST\Менталист Rip\Rip Менталист 5 сезон\08. Алые паруса на закате ( Red Sails in the Sunset).avi
Формат : AVI
Формат/Информация : Audio Video Interleave
Размер файла : 621 Мбайт
Продолжительность : 43 м.
Общий поток : 2006 Кбит/сек
Программа кодирования : VirtualDubMod 1.5.10.2 (build 2540/release)
Библиотека кодирования : VirtualDubMod build 2540/release

Видео
Идентификатор : 0
Формат : MPEG-4 Visual
Профиль формата : Simple@L1
Параметр BVOP формата : Нет
Параметр QPel формата : Нет
Параметр GMC формата : Без точки перехода
Параметр матрицы формата : Default (H.263)
Идентификатор кодека : DX50
Идентификатор кодека/Подсказка : DivX 5
Продолжительность : 43 м.
Битрейт : 1805 Кбит/сек
Ширина : 720 пикселей
Высота : 400 пикселей
Соотношение сторон : 16:9
Частота кадров : 23,976 кадра/сек
Цветовое пространство : YUV
Субдискретизация насыщенности : 4:2:0
Битовая глубина : 8 бит
Тип развёртки : Чересстрочная
Порядок развёртки : Верхнее поле первое
Метод сжатия : С потерями
Бит/(Пиксели*Кадры) : 0.261
Размер потока : 558 Мбайт (90%)
Библиотека кодирования : Lavc51.44.0

Аудио
Идентификатор : 1
Формат : AC-3
Формат/Информация : Audio Coding 3
Расширение режима : CM (complete main)
Параметр Endianness формата : Big
Идентификатор кодека : 2000
Продолжительность : 43 м.
Вид битрейта : Постоянный
Битрейт : 192 Кбит/сек
Каналы : 2 канала
Расположение каналов : Front: L R
Частота : 48,0 КГц
Битовая глубина : 16 бит
Метод сжатия : С потерями
Размер потока : 59,4 Мбайт (10%)
Выравнивание : Разделение по промежуткам
Продолжительность промежутка : 42 мс. (1,00 видеокадр)
Время предзагрузки промежутка : 500 мс.
Общее
Полное имя : E:\UPLOADED\СЕРИАЛЫ\MENTALIST\Менталист Rip\Rip Менталист 5 сезон\09. Черная вишня (Black Cherry).avi
Формат : AVI
Формат/Информация : Audio Video Interleave
Размер файла : 520 Мбайт
Продолжительность : 43 м.
Общий поток : 1691 Кбит/сек
Программа кодирования : VirtualDubMod 1.5.10.2 (build 2540/release)
Библиотека кодирования : VirtualDubMod build 2540/release

Видео
Идентификатор : 0
Формат : MPEG-4 Visual
Профиль формата : Simple@L1
Параметр BVOP формата : Нет
Параметр QPel формата : Нет
Параметр GMC формата : Без точки перехода
Параметр матрицы формата : Default (H.263)
Идентификатор кодека : DX50
Идентификатор кодека/Подсказка : DivX 5
Продолжительность : 43 м.
Битрейт : 1489 Кбит/сек
Ширина : 720 пикселей
Высота : 400 пикселей
Соотношение сторон : 16:9
Частота кадров : 23,976 кадра/сек
Цветовое пространство : YUV
Субдискретизация насыщенности : 4:2:0
Битовая глубина : 8 бит
Тип развёртки : Чересстрочная
Порядок развёртки : Верхнее поле первое
Метод сжатия : С потерями
Бит/(Пиксели*Кадры) : 0.216
Размер потока : 458 Мбайт (88%)
Библиотека кодирования : Lavc51.44.0

Аудио
Идентификатор : 1
Формат : AC-3
Формат/Информация : Audio Coding 3
Расширение режима : CM (complete main)
Параметр Endianness формата : Big
Идентификатор кодека : 2000
Продолжительность : 43 м.
Вид битрейта : Постоянный
Битрейт : 192 Кбит/сек
Каналы : 2 канала
Расположение каналов : Front: L R
Частота : 48,0 КГц
Битовая глубина : 16 бит
Метод сжатия : С потерями
Размер потока : 59,1 Мбайт (11%)
Выравнивание : Разделение по промежуткам
Продолжительность промежутка : 42 мс. (1,00 видеокадр)
Время предзагрузки промежутка : 500 мс.
Общее
Полное имя : E:\UPLOADED\СЕРИАЛЫ\MENTALIST\Менталист Rip\Rip Менталист 5 сезон\10. Красная Панама (Panama Red).avi
Формат : AVI
Формат/Информация : Audio Video Interleave
Размер файла : 545 Мбайт
Продолжительность : 43 м.
Общий поток : 1767 Кбит/сек
Программа кодирования : VirtualDubMod 1.5.10.2 (build 2540/release)
Библиотека кодирования : VirtualDubMod build 2540/release

Видео
Идентификатор : 0
Формат : MPEG-4 Visual
Профиль формата : Simple@L1
Параметр BVOP формата : Нет
Параметр QPel формата : Нет
Параметр GMC формата : Без точки перехода
Параметр матрицы формата : Default (H.263)
Идентификатор кодека : DX50
Идентификатор кодека/Подсказка : DivX 5
Продолжительность : 43 м.
Битрейт : 1566 Кбит/сек
Ширина : 720 пикселей
Высота : 400 пикселей
Соотношение сторон : 16:9
Частота кадров : 23,976 кадра/сек
Цветовое пространство : YUV
Субдискретизация насыщенности : 4:2:0
Битовая глубина : 8 бит
Тип развёртки : Чересстрочная
Порядок развёртки : Верхнее поле первое
Метод сжатия : С потерями
Бит/(Пиксели*Кадры) : 0.227
Размер потока : 482 Мбайт (89%)
Библиотека кодирования : Lavc51.44.0

Аудио
Идентификатор : 1
Формат : AC-3
Формат/Информация : Audio Coding 3
Расширение режима : CM (complete main)
Параметр Endianness формата : Big
Идентификатор кодека : 2000
Продолжительность : 43 м.
Вид битрейта : Постоянный
Битрейт : 192 Кбит/сек
Каналы : 2 канала
Расположение каналов : Front: L R
Частота : 48,0 КГц
Битовая глубина : 16 бит
Метод сжатия : С потерями
Размер потока : 59,2 Мбайт (11%)
Выравнивание : Разделение по промежуткам
Продолжительность промежутка : 42 мс. (1,00 видеокадр)
Время предзагрузки промежутка : 500 мс.
Общее
Полное имя : E:\UPLOADED\СЕРИАЛЫ\MENTALIST\Менталист Rip\Rip Менталист 5 сезон\11. Дни вина и роз (Days of Wine and Roses).avi
Формат : AVI
Формат/Информация : Audio Video Interleave
Размер файла : 481 Мбайт
Продолжительность : 42 м.
Общий поток : 1580 Кбит/сек
Программа кодирования : VirtualDubMod 1.5.10.2 (build 2540/release)
Библиотека кодирования : VirtualDubMod build 2540/release

Видео
Идентификатор : 0
Формат : MPEG-4 Visual
Профиль формата : Simple@L1
Параметр BVOP формата : Нет
Параметр QPel формата : Нет
Параметр GMC формата : Без точки перехода
Параметр матрицы формата : Default (H.263)
Идентификатор кодека : DX50
Идентификатор кодека/Подсказка : DivX 5
Продолжительность : 42 м.
Битрейт : 1379 Кбит/сек
Ширина : 720 пикселей
Высота : 400 пикселей
Соотношение сторон : 16:9
Частота кадров : 23,976 кадра/сек
Цветовое пространство : YUV
Субдискретизация насыщенности : 4:2:0
Битовая глубина : 8 бит
Тип развёртки : Чересстрочная
Порядок развёртки : Верхнее поле первое
Метод сжатия : С потерями
Бит/(Пиксели*Кадры) : 0.200
Размер потока : 419 Мбайт (87%)
Библиотека кодирования : Lavc51.44.0

Аудио
Идентификатор : 1
Формат : AC-3
Формат/Информация : Audio Coding 3
Расширение режима : CM (complete main)
Параметр Endianness формата : Big
Идентификатор кодека : 2000
Продолжительность : 42 м.
Вид битрейта : Постоянный
Битрейт : 192 Кбит/сек
Каналы : 2 канала
Расположение каналов : Front: L R
Частота : 48,0 КГц
Битовая глубина : 16 бит
Метод сжатия : С потерями
Размер потока : 58,4 Мбайт (12%)
Выравнивание : Разделение по промежуткам
Продолжительность промежутка : 42 мс. (1,00 видеокадр)
Время предзагрузки промежутка : 500 мс.
Общее
Полное имя : E:\UPLOADED\СЕРИАЛЫ\MENTALIST\Менталист Rip\Rip Менталист 5 сезон\12. Маленький красный Корвет (Little Red Corvette).avi
Формат : AVI
Формат/Информация : Audio Video Interleave
Размер файла : 530 Мбайт
Продолжительность : 41 м.
Общий поток : 1773 Кбит/сек
Программа кодирования : VirtualDubMod 1.5.10.2 (build 2540/release)
Библиотека кодирования : VirtualDubMod build 2540/release

Видео
Идентификатор : 0
Формат : MPEG-4 Visual
Профиль формата : Simple@L1
Параметр BVOP формата : Нет
Параметр QPel формата : Нет
Параметр GMC формата : Без точки перехода
Параметр матрицы формата : Default (H.263)
Идентификатор кодека : DX50
Идентификатор кодека/Подсказка : DivX 5
Продолжительность : 41 м.
Битрейт : 1572 Кбит/сек
Ширина : 720 пикселей
Высота : 400 пикселей
Соотношение сторон : 16:9
Частота кадров : 23,976 кадра/сек
Цветовое пространство : YUV
Субдискретизация насыщенности : 4:2:0
Битовая глубина : 8 бит
Тип развёртки : Чересстрочная
Порядок развёртки : Верхнее поле первое
Метод сжатия : С потерями
Бит/(Пиксели*Кадры) : 0.228
Размер потока : 470 Мбайт (89%)
Библиотека кодирования : Lavc51.44.0

Аудио
Идентификатор : 1
Формат : AC-3
Формат/Информация : Audio Coding 3
Расширение режима : CM (complete main)
Параметр Endianness формата : Big
Идентификатор кодека : 2000
Продолжительность : 41 м.
Вид битрейта : Постоянный
Битрейт : 192 Кбит/сек
Каналы : 2 канала
Расположение каналов : Front: L R
Частота : 48,0 КГц
Битовая глубина : 16 бит
Метод сжатия : С потерями
Размер потока : 57,4 Мбайт (11%)
Выравнивание : Разделение по промежуткам
Продолжительность промежутка : 42 мс. (1,00 видеокадр)
Время предзагрузки промежутка : 500 мс.
Общее
Полное имя : E:\UPLOADED\СЕРИАЛЫ\MENTALIST\Менталист Rip\Rip Менталист 5 сезон\13. Красный амбар (The Red Barn).avi
Формат : AVI
Формат/Информация : Audio Video Interleave
Размер файла : 482 Мбайт
Продолжительность : 42 м.
Общий поток : 1584 Кбит/сек
Программа кодирования : VirtualDubMod 1.5.10.2 (build 2540/release)
Библиотека кодирования : VirtualDubMod build 2540/release

Видео
Идентификатор : 0
Формат : MPEG-4 Visual
Профиль формата : Simple@L1
Параметр BVOP формата : Нет
Параметр QPel формата : Нет
Параметр GMC формата : Без точки перехода
Параметр матрицы формата : Default (H.263)
Идентификатор кодека : DX50
Идентификатор кодека/Подсказка : DivX 5
Продолжительность : 42 м.
Битрейт : 1382 Кбит/сек
Ширина : 720 пикселей
Высота : 400 пикселей
Соотношение сторон : 16:9
Частота кадров : 23,976 кадра/сек
Цветовое пространство : YUV
Субдискретизация насыщенности : 4:2:0
Битовая глубина : 8 бит
Тип развёртки : Чересстрочная
Порядок развёртки : Верхнее поле первое
Метод сжатия : С потерями
Бит/(Пиксели*Кадры) : 0.200
Размер потока : 421 Мбайт (87%)
Библиотека кодирования : Lavc51.44.0

Аудио
Идентификатор : 1
Формат : AC-3
Формат/Информация : Audio Coding 3
Расширение режима : CM (complete main)
Параметр Endianness формата : Big
Идентификатор кодека : 2000
Продолжительность : 42 м.
Вид битрейта : Постоянный
Битрейт : 192 Кбит/сек
Каналы : 2 канала
Расположение каналов : Front: L R
Частота : 48,0 КГц
Битовая глубина : 16 бит
Метод сжатия : С потерями
Размер потока : 58,4 Мбайт (12%)
Выравнивание : Разделение по промежуткам
Продолжительность промежутка : 42 мс. (1,00 видеокадр)
Время предзагрузки промежутка : 500 мс.
Общее
Полное имя : E:\UPLOADED\СЕРИАЛЫ\MENTALIST\Менталист Rip\Rip Менталист 5 сезон\14. Кровавый естественный отбор (Red in Tooth and Claw).avi
Формат : AVI
Формат/Информация : Audio Video Interleave
Размер файла : 469 Мбайт
Продолжительность : 40 м.
Общий поток : 1625 Кбит/сек
Программа кодирования : VirtualDubMod 1.5.10.2 (build 2540/release)
Библиотека кодирования : VirtualDubMod build 2540/release

Видео
Идентификатор : 0
Формат : MPEG-4 Visual
Профиль формата : Simple@L1
Параметр BVOP формата : Нет
Параметр QPel формата : Нет
Параметр GMC формата : Без точки перехода
Параметр матрицы формата : Default (H.263)
Идентификатор кодека : DX50
Идентификатор кодека/Подсказка : DivX 5
Продолжительность : 40 м.
Битрейт : 1423 Кбит/сек
Ширина : 720 пикселей
Высота : 400 пикселей
Соотношение сторон : 16:9
Частота кадров : 23,976 кадра/сек
Цветовое пространство : YUV
Субдискретизация насыщенности : 4:2:0
Битовая глубина : 8 бит
Тип развёртки : Чересстрочная
Порядок развёртки : Верхнее поле первое
Метод сжатия : С потерями
Бит/(Пиксели*Кадры) : 0.206
Размер потока : 411 Мбайт (88%)
Библиотека кодирования : Lavc51.44.0

Аудио
Идентификатор : 1
Формат : AC-3
Формат/Информация : Audio Coding 3
Расширение режима : CM (complete main)
Параметр Endianness формата : Big
Идентификатор кодека : 2000
Продолжительность : 40 м.
Вид битрейта : Постоянный
Битрейт : 192 Кбит/сек
Каналы : 2 канала
Расположение каналов : Front: L R
Частота : 48,0 КГц
Битовая глубина : 16 бит
Метод сжатия : С потерями
Размер потока : 55,4 Мбайт (12%)
Выравнивание : Разделение по промежуткам
Продолжительность промежутка : 42 мс. (1,00 видеокадр)
Время предзагрузки промежутка : 500 мс.
Общее
Полное имя : E:\UPLOADED\СЕРИАЛЫ\MENTALIST\Менталист Rip\Rip Менталист 5 сезон\15. Красный лак для ногтей (Red Lacquer Nail Polish).avi
Формат : AVI
Формат/Информация : Audio Video Interleave
Размер файла : 500 Мбайт
Продолжительность : 41 м.
Общий поток : 1670 Кбит/сек
Программа кодирования : VirtualDubMod 1.5.10.2 (build 2540/release)
Библиотека кодирования : VirtualDubMod build 2540/release

Видео
Идентификатор : 0
Формат : MPEG-4 Visual
Профиль формата : Simple@L1
Параметр BVOP формата : Нет
Параметр QPel формата : Нет
Параметр GMC формата : Без точки перехода
Параметр матрицы формата : Default (H.263)
Идентификатор кодека : DX50
Идентификатор кодека/Подсказка : DivX 5
Продолжительность : 41 м.
Битрейт : 1469 Кбит/сек
Ширина : 720 пикселей
Высота : 400 пикселей
Соотношение сторон : 16:9
Частота кадров : 23,976 кадра/сек
Цветовое пространство : YUV
Субдискретизация насыщенности : 4:2:0
Битовая глубина : 8 бит
Тип развёртки : Чересстрочная
Порядок развёртки : Верхнее поле первое
Метод сжатия : С потерями
Бит/(Пиксели*Кадры) : 0.213
Размер потока : 440 Мбайт (88%)
Библиотека кодирования : Lavc51.44.0

Аудио
Идентификатор : 1
Формат : AC-3
Формат/Информация : Audio Coding 3
Расширение режима : CM (complete main)
Параметр Endianness формата : Big
Идентификатор кодека : 2000
Продолжительность : 41 м.
Вид битрейта : Постоянный
Битрейт : 192 Кбит/сек
Каналы : 2 канала
Расположение каналов : Front: L R
Частота : 48,0 КГц
Битовая глубина : 16 бит
Метод сжатия : С потерями
Размер потока : 57,5 Мбайт (11%)
Выравнивание : Разделение по промежуткам
Продолжительность промежутка : 42 мс. (1,00 видеокадр)
Время предзагрузки промежутка : 500 мс.
Общее
Полное имя : E:\UPLOADED\СЕРИАЛЫ\MENTALIST\Менталист Rip\Rip Менталист 5 сезон\16. Да будет кровь (There Will Be Blood).avi
Формат : AVI
Формат/Информация : Audio Video Interleave
Размер файла : 423 Мбайт
Продолжительность : 43 м.
Общий поток : 1374 Кбит/сек
Программа кодирования : VirtualDubMod 1.5.10.2 (build 2540/release)
Библиотека кодирования : VirtualDubMod build 2540/release

Видео
Идентификатор : 0
Формат : MPEG-4 Visual
Профиль формата : Simple@L1
Параметр BVOP формата : Нет
Параметр QPel формата : Нет
Параметр GMC формата : Без точки перехода
Параметр матрицы формата : Default (H.263)
Идентификатор кодека : DX50
Идентификатор кодека/Подсказка : DivX 5
Продолжительность : 43 м.
Битрейт : 1173 Кбит/сек
Ширина : 720 пикселей
Высота : 400 пикселей
Соотношение сторон : 16:9
Частота кадров : 23,976 кадра/сек
Цветовое пространство : YUV
Субдискретизация насыщенности : 4:2:0
Битовая глубина : 8 бит
Тип развёртки : Чересстрочная
Порядок развёртки : Верхнее поле первое
Метод сжатия : С потерями
Бит/(Пиксели*Кадры) : 0.170
Размер потока : 361 Мбайт (85%)
Библиотека кодирования : Lavc51.44.0

Аудио
Идентификатор : 1
Формат : AC-3
Формат/Информация : Audio Coding 3
Расширение режима : CM (complete main)
Параметр Endianness формата : Big
Идентификатор кодека : 2000
Продолжительность : 43 м.
Вид битрейта : Постоянный
Битрейт : 192 Кбит/сек
Каналы : 2 канала
Расположение каналов : Front: L R
Частота : 48,0 КГц
Битовая глубина : 16 бит
Метод сжатия : С потерями
Размер потока : 59,1 Мбайт (14%)
Выравнивание : Разделение по промежуткам
Продолжительность промежутка : 42 мс. (1,00 видеокадр)
Время предзагрузки промежутка : 500 мс.
Общее
Полное имя : E:\UPLOADED\СЕРИАЛЫ\MENTALIST\Менталист Rip\Rip Менталист 5 сезон\17. Красный, белый и синий (Red, White and Blue).avi
Формат : AVI
Формат/Информация : Audio Video Interleave
Размер файла : 542 Мбайт
Продолжительность : 43 м.
Общий поток : 1752 Кбит/сек
Программа кодирования : VirtualDubMod 1.5.10.2 (build 2540/release)
Библиотека кодирования : VirtualDubMod build 2540/release

Видео
Идентификатор : 0
Формат : MPEG-4 Visual
Профиль формата : Simple@L1
Параметр BVOP формата : Нет
Параметр QPel формата : Нет
Параметр GMC формата : Без точки перехода
Параметр матрицы формата : Default (H.263)
Идентификатор кодека : DX50
Идентификатор кодека/Подсказка : DivX 5
Продолжительность : 43 м.
Битрейт : 1550 Кбит/сек
Ширина : 720 пикселей
Высота : 400 пикселей
Соотношение сторон : 16:9
Частота кадров : 23,976 кадра/сек
Цветовое пространство : YUV
Субдискретизация насыщенности : 4:2:0
Битовая глубина : 8 бит
Тип развёртки : Чересстрочная
Порядок развёртки : Верхнее поле первое
Метод сжатия : С потерями
Бит/(Пиксели*Кадры) : 0.225
Размер потока : 479 Мбайт (88%)
Библиотека кодирования : Lavc51.44.0

Аудио
Идентификатор : 1
Формат : AC-3
Формат/Информация : Audio Coding 3
Расширение режима : CM (complete main)
Параметр Endianness формата : Big
Идентификатор кодека : 2000
Продолжительность : 43 м.
Вид битрейта : Постоянный
Битрейт : 192 Кбит/сек
Каналы : 2 канала
Расположение каналов : Front: L R
Частота : 48,0 КГц
Битовая глубина : 16 бит
Метод сжатия : С потерями
Размер потока : 59,4 Мбайт (11%)
Выравнивание : Разделение по промежуткам
Продолжительность промежутка : 42 мс. (1,00 видеокадр)
Время предзагрузки промежутка : 500 мс.
Общее
Полное имя : E:\UPLOADED\СЕРИАЛЫ\MENTALIST\Менталист Rip\Rip Менталист 5 сезон\17. Красный, белый и синий (Red, White and Blue).avi
Формат : AVI
Формат/Информация : Audio Video Interleave
Размер файла : 542 Мбайт
Продолжительность : 43 м.
Общий поток : 1752 Кбит/сек
Программа кодирования : VirtualDubMod 1.5.10.2 (build 2540/release)
Библиотека кодирования : VirtualDubMod build 2540/release

Видео
Идентификатор : 0
Формат : MPEG-4 Visual
Профиль формата : Simple@L1
Параметр BVOP формата : Нет
Параметр QPel формата : Нет
Параметр GMC формата : Без точки перехода
Параметр матрицы формата : Default (H.263)
Идентификатор кодека : DX50
Идентификатор кодека/Подсказка : DivX 5
Продолжительность : 43 м.
Битрейт : 1550 Кбит/сек
Ширина : 720 пикселей
Высота : 400 пикселей
Соотношение сторон : 16:9
Частота кадров : 23,976 кадра/сек
Цветовое пространство : YUV
Субдискретизация насыщенности : 4:2:0
Битовая глубина : 8 бит
Тип развёртки : Чересстрочная
Порядок развёртки : Верхнее поле первое
Метод сжатия : С потерями
Бит/(Пиксели*Кадры) : 0.225
Размер потока : 479 Мбайт (88%)
Библиотека кодирования : Lavc51.44.0

Аудио
Идентификатор : 1
Формат : AC-3
Формат/Информация : Audio Coding 3
Расширение режима : CM (complete main)
Параметр Endianness формата : Big
Идентификатор кодека : 2000
Продолжительность : 43 м.
Вид битрейта : Постоянный
Битрейт : 192 Кбит/сек
Каналы : 2 канала
Расположение каналов : Front: L R
Частота : 48,0 КГц
Битовая глубина : 16 бит
Метод сжатия : С потерями
Размер потока : 59,4 Мбайт (11%)
Выравнивание : Разделение по промежуткам
Продолжительность промежутка : 42 мс. (1,00 видеокадр)
Время предзагрузки промежутка : 500 мс.
Общее
Полное имя : E:\UPLOADED\СЕРИАЛЫ\MENTALIST\Менталист Rip\Rip Менталист 5 сезон\19. Красный день календаря (Red Letter Day).avi
Формат : AVI
Формат/Информация : Audio Video Interleave
Размер файла : 586 Мбайт
Продолжительность : 42 м.
Общий поток : 1921 Кбит/сек
Программа кодирования : VirtualDubMod 1.5.10.2 (build 2540/release)
Библиотека кодирования : VirtualDubMod build 2540/release

Видео
Идентификатор : 0
Формат : MPEG-4 Visual
Профиль формата : Simple@L1
Параметр BVOP формата : Нет
Параметр QPel формата : Нет
Параметр GMC формата : Без точки перехода
Параметр матрицы формата : Default (H.263)
Идентификатор кодека : DX50
Идентификатор кодека/Подсказка : DivX 5
Продолжительность : 42 м.
Битрейт : 1719 Кбит/сек
Ширина : 720 пикселей
Высота : 400 пикселей
Соотношение сторон : 16:9
Частота кадров : 23,976 кадра/сек
Цветовое пространство : YUV
Субдискретизация насыщенности : 4:2:0
Битовая глубина : 8 бит
Тип развёртки : Чересстрочная
Порядок развёртки : Верхнее поле первое
Метод сжатия : С потерями
Бит/(Пиксели*Кадры) : 0.249
Размер потока : 525 Мбайт (90%)
Библиотека кодирования : Lavc51.44.0

Аудио
Идентификатор : 1
Формат : AC-3
Формат/Информация : Audio Coding 3
Расширение режима : CM (complete main)
Параметр Endianness формата : Big
Идентификатор кодека : 2000
Продолжительность : 42 м.
Вид битрейта : Постоянный
Битрейт : 192 Кбит/сек
Каналы : 2 канала
Расположение каналов : Front: L R
Частота : 48,0 КГц
Битовая глубина : 16 бит
Метод сжатия : С потерями
Размер потока : 58,6 Мбайт (10%)
Выравнивание : Разделение по промежуткам
Продолжительность промежутка : 42 мс. (1,00 видеокадр)
Время предзагрузки промежутка : 500 мс.
Общее
Полное имя : E:\UPLOADED\СЕРИАЛЫ\MENTALIST\Менталист Rip\Rip Менталист 5 сезон\20. Красные бархатные кексы (Red Velvet Cupcakes).avi
Формат : AVI
Формат/Информация : Audio Video Interleave
Размер файла : 504 Мбайт
Продолжительность : 43 м.
Общий поток : 1633 Кбит/сек
Программа кодирования : VirtualDubMod 1.5.10.2 (build 2540/release)
Библиотека кодирования : VirtualDubMod build 2540/release

Видео
Идентификатор : 0
Формат : MPEG-4 Visual
Профиль формата : Simple@L1
Параметр BVOP формата : Нет
Параметр QPel формата : Нет
Параметр GMC формата : Без точки перехода
Параметр матрицы формата : Default (H.263)
Идентификатор кодека : DX50
Идентификатор кодека/Подсказка : DivX 5
Продолжительность : 43 м.
Битрейт : 1431 Кбит/сек
Ширина : 720 пикселей
Высота : 400 пикселей
Соотношение сторон : 16:9
Частота кадров : 23,976 кадра/сек
Цветовое пространство : YUV
Субдискретизация насыщенности : 4:2:0
Битовая глубина : 8 бит
Тип развёртки : Чересстрочная
Порядок развёртки : Верхнее поле первое
Метод сжатия : С потерями
Бит/(Пиксели*Кадры) : 0.207
Размер потока : 442 Мбайт (88%)
Библиотека кодирования : Lavc51.44.0

Аудио
Идентификатор : 1
Формат : AC-3
Формат/Информация : Audio Coding 3
Расширение режима : CM (complete main)
Параметр Endianness формата : Big
Идентификатор кодека : 2000
Продолжительность : 43 м.
Вид битрейта : Постоянный
Битрейт : 192 Кбит/сек
Каналы : 2 канала
Расположение каналов : Front: L R
Частота : 48,0 КГц
Битовая глубина : 16 бит
Метод сжатия : С потерями
Размер потока : 59,2 Мбайт (12%)
Выравнивание : Разделение по промежуткам
Продолжительность промежутка : 42 мс. (1,00 видеокадр)
Время предзагрузки промежутка : 500 мс.
Общее
Полное имя : E:\UPLOADED\СЕРИАЛЫ\MENTALIST\Менталист Rip\Rip Менталист 5 сезон\21. Красный и зудящий (Red and Itchy).avi
Формат : AVI
Формат/Информация : Audio Video Interleave
Размер файла : 523 Мбайт
Продолжительность : 42 м.
Общий поток : 1717 Кбит/сек
Программа кодирования : VirtualDubMod 1.5.10.2 (build 2540/release)
Библиотека кодирования : VirtualDubMod build 2540/release

Видео
Идентификатор : 0
Формат : MPEG-4 Visual
Профиль формата : Simple@L1
Параметр BVOP формата : Нет
Параметр QPel формата : Нет
Параметр GMC формата : Без точки перехода
Параметр матрицы формата : Default (H.263)
Идентификатор кодека : DX50
Идентификатор кодека/Подсказка : DivX 5
Продолжительность : 42 м.
Битрейт : 1515 Кбит/сек
Ширина : 720 пикселей
Высота : 400 пикселей
Соотношение сторон : 16:9
Частота кадров : 23,976 кадра/сек
Цветовое пространство : YUV
Субдискретизация насыщенности : 4:2:0
Битовая глубина : 8 бит
Тип развёртки : Чересстрочная
Порядок развёртки : Верхнее поле первое
Метод сжатия : С потерями
Бит/(Пиксели*Кадры) : 0.219
Размер потока : 462 Мбайт (88%)
Библиотека кодирования : Lavc51.44.0

Аудио
Идентификатор : 1
Формат : AC-3
Формат/Информация : Audio Coding 3
Расширение режима : CM (complete main)
Параметр Endianness формата : Big
Идентификатор кодека : 2000
Продолжительность : 42 м.
Вид битрейта : Постоянный
Битрейт : 192 Кбит/сек
Каналы : 2 канала
Расположение каналов : Front: L R
Частота : 48,0 КГц
Битовая глубина : 16 бит
Метод сжатия : С потерями
Размер потока : 58,5 Мбайт (11%)
Выравнивание : Разделение по промежуткам
Продолжительность промежутка : 42 мс. (1,00 видеокадр)
Время предзагрузки промежутка : 500 мс.
Общее
Полное имя : E:\UPLOADED\СЕРИАЛЫ\MENTALIST\Менталист Rip\Rip Менталист 5 сезон\22. Правила Кровавого Джона (Red John's Rules).avi
Формат : AVI
Формат/Информация : Audio Video Interleave
Размер файла : 594 Мбайт
Продолжительность : 42 м.
Общий поток : 1936 Кбит/сек
Программа кодирования : VirtualDubMod 1.5.10.2 (build 2540/release)
Библиотека кодирования : VirtualDubMod build 2540/release

Видео
Идентификатор : 0
Формат : MPEG-4 Visual
Профиль формата : Simple@L1
Параметр BVOP формата : Нет
Параметр QPel формата : Нет
Параметр GMC формата : Без точки перехода
Параметр матрицы формата : Default (H.263)
Идентификатор кодека : DX50
Идентификатор кодека/Подсказка : DivX 5
Продолжительность : 42 м.
Битрейт : 1735 Кбит/сек
Ширина : 720 пикселей
Высота : 400 пикселей
Соотношение сторон : 16:9
Частота кадров : 23,976 кадра/сек
Цветовое пространство : YUV
Субдискретизация насыщенности : 4:2:0
Битовая глубина : 8 бит
Тип развёртки : Чересстрочная
Порядок развёртки : Верхнее поле первое
Метод сжатия : С потерями
Бит/(Пиксели*Кадры) : 0.251
Размер потока : 532 Мбайт (90%)
Библиотека кодирования : Lavc51.44.0

Аудио
Идентификатор : 1
Формат : AC-3
Формат/Информация : Audio Coding 3
Расширение режима : CM (complete main)
Параметр Endianness формата : Big
Идентификатор кодека : 2000
Продолжительность : 42 м.
Вид битрейта : Постоянный
Битрейт : 192 Кбит/сек
Каналы : 2 канала
Расположение каналов : Front: L R
Частота : 48,0 КГц
Битовая глубина : 16 бит
Метод сжатия : С потерями
Размер потока : 58,9 Мбайт (10%)
Выравнивание : Разделение по промежуткам
Продолжительность промежутка : 42 мс. (1,00 видеокадр)
Время предзагрузки промежутка : 500 мс.
01. Багряный билет / The Crimson Ticket
02. Вишня дьявола / Devil's Cherry
03. Ни одного кровавого цента / Not One Red Cent
04. Кровавая месть / Blood Feud
05. Алая заря / Red Dawn
06. Отборная вишня / Cherry Picked
07. Кровавое - сенсационнее / If It Bleeds, It Leads
08. Алые паруса на закате / Red Sails in the Sunset
09. Черная вишня / Black Cherry
10. Красная Панама / Panama Red
11. Дни вина и роз / Days of Wine and Roses
12. Маленький красный Корвет / Little Red Corvette
13. Красный амбар / The Red Barn
14. Кровавый естественный отбор / Red in Tooth and Claw
15. Красный лак для ногтей / Red Lacquer Nail Polish
16. Да будет кровь / There Will Be Blood
17. Красный, белый и синий / Red, White and Blue
18. За красным занавесом / Behind the Red Curtain
19. Красный день календаря / Red Letter Day
20. Красные бархатные кексы / Red Velvet Cupcakes
21. Красный и зудящий / Red and Itchy
22. Правила Кровавого Джона / Red John's Rules
miha2154 - за звук

МЕНТАЛИСТ 1-Й СЕЗОН ТВ-3
МЕНТАЛИСТ 2-Й СЕЗОН ТВ-3
МЕНТАЛИСТ 3-Й СЕЗОН ТВ-3
МЕНТАЛИСТ 4-Й СЕЗОН ТВ-3
Продолжительность: ~00:43:00 серия
Качество видео: WEB-DLRip
Формат: AVI
Видеокодек:DivX 5
Битрейт видео: ~1600 Кбит/сек
Размер кадра: 720x400 (16:9), 23,976 fps
Аудиокодек: AC3
Битрейт аудио:
аудио rus: AC-3 at 192 Kbps 2 channels, 48.0 KHz, дубляж ТВ-3
Менталист/The Mentalist все раздачи сериала

Скриншоты:

Время Раздачи: 24/7 - круглосуточно
[NNM-Club.ru]_Rip Mentalist 5 sezon.torrent
 Торрент: Платиновая раздача  Зарегистрирован
 
Скачать


 Зарегистрирован:   12 Июл 2013 23:08:43
 Размер:   11,4 GB  (
 Рейтинг:   4,9 (Голосов: 309)
 Поблагодарили:   1364
 Проверка:   Оформление проверено модератором 13 Июл 2013 01:55:10
Как cкачать  ·  Как раздать  ·  Правильно оформить  ·  Поднять ратио!  

_________________
На первом месте у меня семья и дети, а хобби =>Мои РЕЛИЗЫ <= в свободное от них время
demarSH
Стаж: 6 лет 11 мес.
Сообщений: 2
Ratio: 41,399
100%
WOLF80, спасибо огромное за Ваши труды, и отдельное спасибо за avi ;-)
babsy
Стаж: 7 лет 10 мес.
Сообщений: 19
Ratio: 17,215
84.75%
russia.gif
WOLF 80
я вас люблю!!! :цветок:
whlzor
Стаж: 8 лет 2 мес.
Сообщений: 3
Ratio: 14,531
28.57%
ukraine.gif
огромное спасибо)
Kesha1966
Стаж: 10 лет 5 мес.
Сообщений: 46
Ratio: 227,462
100%
Откуда: Донецк
ussr.gif
Большое СПАСИБО!!! :клево:
tanyaat
Стаж: 11 лет 3 мес.
Сообщений: 8
Ratio: 1,093
4.9%
ukraine.gif
Спасибо!
monbel
Стаж: 7 лет 10 мес.
Сообщений: 2
Ratio: 8,792
100%
Огромное человеческое спасибо!
Guana84
Стаж: 9 лет 9 мес.
Сообщений: 271
Ratio: 3,445
100%
дорогие мои со сериальники))) могу с увереностью в 99.999999989% -тов заявить что кровавый джон это
miha2154
Стаж: 10 лет 2 мес.
Сообщений: 23
Ratio: 10,598
0%
honduras.gif
Guana84 писал(а): Перейти к сообщению
кровавый джон это
Yours truly
Стаж: 7 лет 2 мес.
Сообщений: 6
Ratio: 1,022
100%
Guana84 писал(а): Перейти к сообщению
кровавый джон это
20971
Стаж: 9 лет 7 мес.
Сообщений: 214
Ratio: 22,617
100%
Откуда: Одесса
india.gif
Огромнейшее человеческое спасибо!!!!!!! :цветок:

_________________
Дурная мысль подобна гвоздю.Её легко забить но трудно вытащить...Ничто не вызывает такой сильной паники, как крик "Только без паники!"...
AlpenGold
Стаж: 10 лет 8 мес.
Сообщений: 1
Ratio: 27,604
0%
russia.gif
Что за чепуха, герои опять говорят разными голосами, будто одного героя озвучивали несколько человек!!
slavapro
Стаж: 10 лет 1 мес.
Сообщений: 8
Ratio: 2,156
4.08%
Guana84 писал(а): Перейти к сообщению
дорогие мои со сериальники))) могу с увереностью в 99.999999989% -тов заявить что кровавый джон это


оооооо да вы сама менталистка еще та.... эта мысль озвучена еще в 2010 году в интервью со Саймоном Бакером (см. книгу "Менталист от а до я" Фредерика Рапили)
Kurushi
Стаж: 8 лет 3 мес.
Сообщений: 283
Ratio: 74,112
Раздал: 12,88 TB
Поблагодарили: 203
100%
norway.gif
Вам же русским языком сказали. "Это дело рук самого Дьявола!" Гадают тут на кофейной гуще..
А на самом деле там какой-то очень ловкий многоходовый трюк, который будет заставлять ПД поверить в сверхестественные способности КД весь последний сезон, а в последней серии ПД виртуозно раскроет все фокусы КД и вышагивая вдоль толпы разинутых варежек словно грациозная лань, затроллит Красного Джона до Серо-буро-зеленоватости в горошек и тот лопнет словно воздушный шарик или жевательная резинка бубле-гум.. И все, кого он съел, повыпрыгивают на волю будто радостные солдатики - Ура! Ура! Теперь наши души свободны! :супер!:
cyberdamn
Стаж: 7 лет 11 мес.
Сообщений: 52
Ratio: 3,405
56.89%
russia.gif
актёры русской озвучки кто?
Показать сообщения:   
Начать новую тему   Ответить на тему    Торрент-трекер NNM-Club -> Зарубежные сериалы -> Менталист / The Mentalist ; Теория Лжи / Lie To Me Часовой пояс: GMT + 3
Страницы:  1, 2  След.
Страница 1 из 2