Классический форум-трекер
canvas not supported
Нас вместе: 4 083 586
Платим за отзывы

Гандахар Световые годы / Gandahar Les Annes Lumiere (1988) DVDRip


 
 
RSS
Начать новую тему   Ответить на тему    Торрент-трекер NNM-Club -> Мультфильмы -> Зарубежные Мультфильмы (HD*Rip/LQ, DVDRip, SATRip, VHSRip)
Автор Сообщение
romul7731 ®
Стаж: 9 лет 6 мес.
Сообщений: 203
Ratio: 26,844
Раздал: 25,26 TB
Поблагодарили: 21431
100%
Откуда: Донбасс
ussr.gif
Гандахар Световые годы / Gandahar Les Annes Lumiere (1988) DVDRip
Год выпуска: 1988
Жанр: Фантастика, Приключения
Страна: Франция

Перевод: Многоголосый закадровый, профессиональный
Вид субтитров: Отсутствуют



Режиссер: Рене Лалу / Renе Laloux
Персонажи: Пьер-Мари Эскор, Катрин Шевалье, Джордж Уилсон, Энни Депери, Жан Пьер Дуко.

Описание фильма:
Гандахар - фантастический мир красоты и благоденствия, результат мутаций и генной инженерии. Однако таинственная сила металлических людей вторглась на планету и нарушила эту идиллию. Женский Совет решает послать сына королевы Амбисекстры Сильвана на уничтожение врага. Вместе с прекрасной незнакомкой они узнают, что когда-то гандахарские эксперименты породили Метаморфиса, создателя армии убийц. Битва с Метаморфисом может состояться только через тысячу лет...

Продолжительность: 01:19:24
Качество видео: DVDRip

Видеокодек: DivX 5
Битрейт видео: ~1555 Кбит/сек
Размер кадра: 704x512

Аудио 1: Русский 48 kHz, AC3 Dolby Digital, 3/2 (L,C,R,l,r) + LFE ch, ~448.00 kbps avg
Аудио 2: Французский 48 kHz, AC3 Dolby Digital, 3/2 (L,C,R,l,r) + LFE ch, ~448.00 kbps avg
Общее
Полное имя : Гандахар Световые годы.avi
Формат : AVI
Формат/Информация : Audio Video Interleave
Размер файла : 1,37 Гбайт
Продолжительность : 1 ч. 19 м.
Общий поток : 2466 Кбит/сек
Программа кодирования : VirtualDubMod 1.5.10.2 (build 2540/release)
Библиотека кодирования : VirtualDubMod build 2540/release

Видео
Идентификатор : 0
Формат : MPEG-4 Visual
Параметр BVOP формата : 1
Параметр QPel формата : Нет
Параметр GMC формата : Без точки перехода
Параметр матрицы формата : Default (H.263)
Режим смешивания : Сжатый битовый поток
Идентификатор кодека : DX50
Идентификатор кодека/Подсказка : DivX 5
Продолжительность : 1 ч. 19 м.
Битрейт : 1555 Кбит/сек
Ширина : 704 пикселя
Высота : 512 пикселей
Соотношение сторон : 1,375
Частота кадров : 25,000 кадров/сек
Цветовое пространство : YUV
Субдискретизация насыщенности : 4:2:0
Битовая глубина : 8 бит
Тип развёртки : Прогрессивная
Метод сжатия : С потерями
Бит/(Пиксели*Кадры) : 0.173
Размер потока : 883 Мбайт (63%)
Библиотека кодирования : DivX 5.2.1 (WaffleDay) (UTC 2004-09-08)

Аудио #1
Идентификатор : 1
Формат : AC-3
Формат/Информация : Audio Coding 3
Расширение режима : CM (complete main)
Параметр Endianness формата : Big
Идентификатор кодека : 2000
Продолжительность : 1 ч. 19 м.
Вид битрейта : Постоянный
Битрейт : 448 Кбит/сек
Каналы : 6 каналов
Расположение каналов : Front: L C R, Side: L R, LFE
Частота : 48,0 КГц
Битовая глубина : 16 бит
Метод сжатия : С потерями
Размер потока : 254 Мбайт (18%)
Выравнивание : Разделение по промежуткам
Продолжительность промежутка : 40 мс. (1,00 видеокадр)
Время предзагрузки промежутка : 500 мс.

Аудио #2
Идентификатор : 2
Формат : AC-3
Формат/Информация : Audio Coding 3
Расширение режима : CM (complete main)
Параметр Endianness формата : Big
Идентификатор кодека : 2000
Продолжительность : 1 ч. 19 м.
Вид битрейта : Постоянный
Битрейт : 448 Кбит/сек
Каналы : 6 каналов
Расположение каналов : Front: L C R, Side: L R, LFE
Частота : 48,0 КГц
Битовая глубина : 16 бит
Метод сжатия : С потерями
Размер потока : 254 Мбайт (18%)
Выравнивание : Разделение по промежуткам
Продолжительность промежутка : 40 мс. (1,00 видеокадр)
Время предзагрузки промежутка : 500 мс.
Скриншоты:


Гандахар. Световые годы на NNM-CLUB

Время раздачи: до пяти сидов
[NNM-Club.ru]_Gandahar Svetovyie godyi.avi.torrent
 Торрент: Платиновая раздача  Зарегистрирован
 
Скачать


Примагнититься
 Зарегистрирован:   13 Июл 2013 09:17:11
 Размер:   1,37 GB  (
 Рейтинг:   4,7 (Голосов: 61)
 Поблагодарили:   287
 Проверка:   Оформление проверено модератором 13 Июл 2013 11:38:10
Как cкачать  ·  Как раздать  ·  Правильно оформить  ·  Поднять ратио!  
Art!P
Стаж: 8 лет 10 мес.
Сообщений: 307
Ratio: 44,879
100%
Спасибо

_________________
Тот кто всё время утверждает что он не дурак, вызывает подозрения по этому поводу.
Nemec555
Стаж: 7 лет 4 мес.
Сообщений: 777
Ratio: 107,9
Раздал: 58 TB
Поблагодарили: 2861
100%
Откуда: Берлин
germany.gif
и от меня спасибо! Хоть и дядька взрослый, но такие мульты люблю периодически смотреть.
Jrom198
Стаж: 9 лет 2 мес.
Сообщений: 52
Ratio: 2,238
100%
ukraine.gif
Я рад что есть этот шедевр фантастики, спасибо.
suslic11
Стаж: 9 лет 1 мес.
Сообщений: 112
Ratio: 5,223
100%
Лалу надо брать не глядя.
efgensk
Стаж: 8 лет
Сообщений: 228
Ratio: 21,195
100%
подобрал похожее:
Дикая планета - отличный мульт
Поле битвы: Земля - еще не смотрел
simakovvv
Стаж: 10 лет 3 мес.
Сообщений: 24
Ratio: 10,576
100%
russia.gif
efgensk писал(а): Перейти к сообщению
подобрал похожее:
Дикая планета - отличный мульт
Поле битвы: Земля - еще не смотрел


Это же Лалу! Еще "Властелины времени" смотреть обязательно. При чем здесь Поле битвы - не пойму...
efgensk
Стаж: 8 лет
Сообщений: 228
Ratio: 21,195
100%
simakovvv писал(а): Перейти к сообщению
При чем здесь Поле битвы - не пойму...

немного притянуто за уши. Порабощение одной расы другой, восстание угнетенных и революция
Показать сообщения:   
Начать новую тему   Ответить на тему    Торрент-трекер NNM-Club -> Мультфильмы -> Зарубежные Мультфильмы (HD*Rip/LQ, DVDRip, SATRip, VHSRip) Часовой пояс: GMT + 3
Страница 1 из 1