Классический форум-трекер
canvas not supported
Нас вместе: 4 093 127

Jimi Hendrix - Greatest Hits (2001) [APE|Lossless]<Hard Rock>


 
 
RSS
Начать новую тему   Ответить на тему    Торрент-трекер NNM-Club -> Rock, Alternative, Punk, Metal -> Hard Rock (Lossless)
Автор Сообщение
staronadymsky ®
Стаж: 7 лет 5 мес.
Сообщений: 360
Ratio: 59,263
Поблагодарили: 33342
100%
russia.gif
Jimi Hendrix - Greatest Hits (2001)
Год: 2001
Жанр: Hard Rock
Продолжительность: 01:12:21

Кодек: APE
Битрейт: Lossless

Треклист:
01. Fire
02. All Along The Watchtower
03. Burning Of The Middle Lamp
04. 51st Anniversary
05. Purple Haze
06. Little Wing
07. Foxy Lady
08. Voodoo Child (Slight Return)
09. Wait Until Tomorrow
10. Hey Joe
11. Can You See Me
12. Castles Made Of Sand
13. Long Hot Summer Night
14. Bold As Love
15. The Wild Cries Mary
16. Third Stone From The Sun
17. Crosstown Traffic
18. Gypsy Eyes
19. Are You Experienced?
20. Angel
Производитель диска: RAO
Код:

Exact Audio Copy V0.99 prebeta 4 from 23. January 2008

Отчёт EAC об извлечении, выполненном 5. декабря 2008, 23:58

Jimi Hendrix / Greatest Hits

Дисковод: PLEXTOR DVDR PX-716A Adapter: 3 ID: 0

Режим чтения : Достоверность
Использование точного потока : Да
Отключение кэша аудио : Да
Использование указателей C2 : Нет

Коррекция смещения при чтении : 30
Способность читать области Lead-in и Lead-out : Да
Заполнение пропущенных сэмплов тишиной : Да
Удаление блоков с тишиной в начале и конце : Нет
При вычислениях CRC использовались нулевые сэмплы : Да
Интерфейс : Установленный внешний ASPI-интерфейс

Выходной формат : Monkey's Audio Lossless Encoder v3.99 DLL
Формат сэмплов : Fast Lossless Compression

TOC извлечённого CD

Трек | Старт | Длительность | Начальный сектор | Конечный сектор
---------------------------------------------------------------------
1 | 0:00.01 | 2:45.19 | 1 | 12394
2 | 2:45.20 | 4:02.38 | 12395 | 30582
3 | 6:47.58 | 3:40.41 | 30583 | 47123
4 | 10:28.24 | 3:18.14 | 47124 | 61987
5 | 13:46.38 | 2:52.26 | 61988 | 74913
6 | 16:38.64 | 2:27.31 | 74914 | 85969
7 | 19:06.20 | 3:21.37 | 85970 | 101081
8 | 22:27.57 | 5:13.71 | 101082 | 124627
9 | 27:41.53 | 3:02.71 | 124628 | 138348
10 | 30:44.49 | 3:31.33 | 138349 | 154206
11 | 34:16.07 | 2:34.40 | 154207 | 165796
12 | 36:50.47 | 2:49.00 | 165797 | 178471
13 | 39:39.47 | 3:30.33 | 178472 | 194254
14 | 43:10.05 | 4:13.68 | 194255 | 213297
15 | 47:23.73 | 3:23.69 | 213298 | 228591
16 | 50:47.67 | 6:45.32 | 228592 | 258998
17 | 57:33.24 | 2:21.11 | 258999 | 269584
18 | 59:54.35 | 3:44.36 | 269585 | 286420
19 | 63:38.71 | 4:16.30 | 286421 | 305650
20 | 67:55.26 | 4:26.25 | 305651 | 325625

Характеристики диапазона извлечения и сообщения об ошибках

Выбранный диапазон

Имя файла F:\Jimi_Hendrix_Greatest_Hits\Jimi Hendrix - Greatest Hits.ape

Пиковый уровень 100.0 %
Качество диапазона 100.0 %
CRC копии 5069AB77
Копирование... OK

Ошибок не произошло

Конец отчёта
Код:

DON'T MODIFY THIS FILE

-----------------------

PERFORMER: auCDtect Task Manager, ver. 1.5.1RC6 build 1.5.1.7
Copyright (c) 2008-2010 y-soft. All rights reserved
http://y-soft.org

ANALYZER: auCDtect: CD records authenticity detector, version 0.8.2
Copyright (c) 2004 Oleg Berngardt. All rights reserved.
Copyright (c) 2004 Alexander Djourik. All rights reserved.

FILE: Jimi Hendrix - Greatest Hits.ape
  Size: 474819511 Hash: E947B580FCD095D8C8391EBB6BC7767E Accuracy: -m0
  Conclusion: CDDA 100%
  Signature: C378B03FE09DFD0711AFD8F4131588DD82E9E086
Время раздачи: 24/ по мере возможности


Поглощение/вытеснение
Только с согласия релизера

Bigbeer
[NNM-Club.ru]_Jimi_Hendrix_Greatest_Hits.torrent
 Торрент: Платиновая раздача  Зарегистрирован
 
Скачать


 Зарегистрирован:   13 Июл 2013 18:40:13
 Размер:   453 MB  (
 Рейтинг:   4,9 (Голосов: 25)
 Поблагодарили:   111
 Проверка:   Оформление проверено модератором 14 Июл 2013 14:18:13
Как cкачать  ·  Как раздать  ·  Правильно оформить  ·  Поднять ратио!  
Показать сообщения:   
Начать новую тему   Ответить на тему    Торрент-трекер NNM-Club -> Rock, Alternative, Punk, Metal -> Hard Rock (Lossless) Часовой пояс: GMT + 3
Страница 1 из 1