Классический форум-трекер
canvas not supported
Нас вместе: 4 078 961

Лунтик и его друзья (2013) SATRip (7 сезон, серии №№ 390-414)


Страницы:  1, 2  След. 
 
RSS
Начать новую тему   Ответить на тему    Торрент-трекер NNM-Club -> Мультфильмы -> Отечественные Мультсериалы
Автор Сообщение
Gazonocos​il'shik​ ®
Стаж: 9 лет 9 мес.
Сообщений: 115
Ratio: 102,165
Раздал: 9,337 TB
Поблагодарили: 8331
100%
Лунтик и его друзья (2013) SATRip (7 сезон, серии №№ 390-414)
Год выпуска: 2013
Жанр: Детский, Приключения, Компьютерная анимация

Режиссер: Екатерина Голубеева, Екатерина Салабай
Персонажи: Лунтик, Кузя, Мила, Шнюк

Описание фильма:
Новые серии популярного детского мультфильма!
российский обучающий анимационный сериал для детей дошкольного возраста. Это история маленького пушистого существа Лунтика, родившегося на Луне и упавшего с неё на Землю. Действие происходит на лесной поляне около пруда. Большинство персонажей — это мелкие животные: насекомые, рыбы, лягушки и т. д. Они представляют собой взрослых и детей. Главные персонажи — это дети, прежде всего сам Лунтик, которые познают мир, учатся взаимоотношениям в обществе. Сериал очень добрый, в нём показан детский взгляд на мир. По сути, здесь нет целиком и полностью отрицательных персонажей, даже хулиганы—гусеницы и истеричная пиявка показаны зачастую с разных сторон, многогранными характерами, в которых есть и положительные черты. Сериал представляет собой набор коротких 6-минутных серий, в каждой разворачивается отдельная законченная история

Продолжительность: 22 х ~ 00:05:00
Качество видео: SATRip

Видеокодек: Xvid
Битрейт видео: ~1494 Кбит/сек
Размер кадра: 720х528
Битрейт аудио: AC-3 2 канала, 192 Кбит/сек
390. Лишнее время
391. Морские обитатели
392. Книга рекордов
394. Солёный чай
395. Перчик
396. Красивая Клава
397. Клоуны
400. Звёздный дождь
401. Листопад
402. Радужные камни
403. Признание таланта
404. Краденое солнышко
405. Позвать слона в гости
406. Каждому по планете
407. Компания для Клавы
408. Памятные вещи
409. На всякий случай
410. Космические путешественники
411. Всего одну серию!
412. Травожуйка
413. Лесная полька
414. Сами справимся
Общее
Полное имя : F:\Мультики\Лунтик\Лунтик. Сезон 7\390. Лишнее время.avi
Формат : AVI
Формат/Информация : Audio Video Interleave
Размер файла : 56,4 Мбайт
Продолжительность : 4 м. 38 с.
Общий поток : 1702 Кбит/сек
Режиссёр : SATRip
Программа кодирования : VirtualDubMod
Формат оригинала/Имя :

Видео
Идентификатор : 0
Формат : MPEG-4 Visual
Профиль формата : Advanced Simple@L5
Параметр BVOP формата : 2
Параметр QPel формата : Нет
Параметр GMC формата : Без точки перехода
Параметр матрицы формата : Default (H.263)
Идентификатор кодека : XVID
Идентификатор кодека/Подсказка : XviD
Продолжительность : 4 м. 38 с.
Битрейт : 1500 Кбит/сек
Ширина : 720 пикселей
Высота : 528 пикселей
Соотношение сторон : 4:3
Частота кадров : 25,000 кадров/сек
Цветовое пространство : YUV
Субдискретизация насыщенности : 4:2:0
Битовая глубина : 8 бит
Тип развёртки : Прогрессивная
Метод сжатия : С потерями
Бит/(Пиксели*Кадры) : 0.158
Размер потока : 49,7 Мбайт (88%)
Библиотека кодирования : XviD 1.2.1 (UTC 2008-12-04)

Аудио
Идентификатор : 1
Формат : AC-3
Формат/Информация : Audio Coding 3
Расширение режима : CM (complete main)
Идентификатор кодека : 2000
Продолжительность : 4 м. 38 с.
Вид битрейта : Постоянный
Битрейт : 192 Кбит/сек
Каналы : 2 канала
Расположение каналов : Front: L R
Частота : 48,0 КГц
Битовая глубина : 16 бит
Метод сжатия : С потерями
Размер потока : 6,37 Мбайт (11%)
Выравнивание : Разделение по промежуткам
Продолжительность промежутка : 40 мс. (1,00 видеокадр)
Время предзагрузки промежутка : 500 мс.
Скриншоты:


Лунтик и его друзья на NNM-CLUB

Время раздачи: 10:00 - 24:00
[NNM-Club.ru]_Luntik. Sezon 7.torrent
 Торрент: Платиновая раздача  Зарегистрирован
 
Скачать


Примагнититься
 Зарегистрирован:   14 Июл 2013 15:52:41
 Размер:   1,23 GB  (
 Рейтинг:   4,8 (Голосов: 291)
 Поблагодарили:   1288
 Проверка:   Оформление проверено модератором 16 Июл 2013 06:19:57
Как cкачать  ·  Как раздать  ·  Правильно оформить  ·  Поднять ратио!  
Загрузка...
radionych
Стаж: 8 лет 10 мес.
Сообщений: 1
Ratio: 7,926
100%
спасибо-спасибо!!! наконец-то новые серии.... старые уж наизусть дочка выучила... и родители тоже)
ast44
Стаж: 13 лет
Сообщений: 65
Ratio: 2,393
Поблагодарили: 47
97.58%
ussr.gif
:смех: да терь будет что новенького посматреть
трезорыч
Стаж: 7 лет 2 мес.
Сообщений: 2713
Ratio: 76,377
100%
Откуда: Из Интернета
russia.gif
Круто ! Спасибо дочь смотрит новые серии с утра до вечера а то старые уже приелись ! Да и качество хорошое а если прогнать через конвектор вообще отличное ! :клево:
Dmitry_GV
Стаж: 8 лет 10 мес.
Сообщений: 13
Ratio: 49,523
Раздал: 12,17 TB
100%
Откуда: с Урала
russia.gif
Огромное спасибо за долгожданные новые серии!!!
mariykaa
Стаж: 7 лет 2 мес.
Сообщений: 1
Ratio: 0,574
32.26%
Огромное человеческое спасибо! Порадую завтра ребёнка!
Dfcz833
Стаж: 8 лет 9 мес.
Сообщений: 2
Ratio: 39,962
4.26%
russia.gif
Спасибо!
renreg
Стаж: 11 лет 9 мес.
Сообщений: 3
Ratio: 2,901
100%
israel.gif
Спасибо
agelastik
Стаж: 8 лет 9 мес.
Сообщений: 16
Ratio: 3,144
0.7%
russia.gif
Спасибо! Но где 398 серия ("Озорники")?
Gazonocos​il'shik​ ®
Стаж: 9 лет 9 мес.
Сообщений: 115
Ratio: 102,165
Раздал: 9,337 TB
Поблагодарили: 8331
100%
всем пожалуйста!
agelastik писал(а): Перейти к сообщению
Спасибо! Но где 398 серия ("Озорники")?

я в отпуске, вернусь добавлю эту и следующие
Kolibass
Стаж: 8 лет 7 мес.
Сообщений: 5
Ratio: 4,437
Раздал: 109 GB
100%
ukraine.gif
Поддержу раздачу !
alleclf
Стаж: 6 лет 11 мес.
Сообщений: 2
Ratio: 4,413
0%
а куда делись 398 и 399 серии?
starklad
RG Всё лучшее - детям!
Реставратор Детского, Uploader 100+
 
Стаж: 7 лет 10 мес.
Сообщений: 7923
Ratio: 12K
Поблагодарили: 198760
100%
Откуда: родом из СССР
ussr.gif
alleclf писал(а): Перейти к сообщению
а куда делись 398 и 399 серии?


Если у Вас есть - оформляйте.
KomAnita
Стаж: 8 лет 1 мес.
Сообщений: 1
Ratio: 4,393
69.23%
russia.gif
Спасибо огромное! Дочка будет в восторге :)
andrey1366621
Стаж: 7 лет 10 мес.
Сообщений: 33
Ratio: 13,641
100%
ussr.gif
Огромное спасибо!!!
Показать сообщения:   
Начать новую тему   Ответить на тему    Торрент-трекер NNM-Club -> Мультфильмы -> Отечественные Мультсериалы Часовой пояс: GMT + 3
Страницы:  1, 2  След.
Страница 1 из 2