Классический форум-трекер
canvas not supported
Нас вместе: 4 093 317

Foo Fighters - Echoes, Silence, Patience & Grace (Japan edition) (2007) [ALAC|Lossless]<Alternative rock, post-grunge, hard rock>


 
 
RSS
Начать новую тему   Ответить на тему    Торрент-трекер NNM-Club -> Аудио и Видео -> Музыка Lossless (ALAC)
Автор Сообщение
CafeTea ®
Покровитель талантов
 
Стаж: 8 лет 7 мес.
Сообщений: 507
Ratio: 7,41
Поблагодарили: 20134
100%
Foo Fighters - Echoes, Silence, Patience & Grace (Japan edition) (2007)
Год: 2007
Жанр: Alternative rock, post-grunge, hard rock
Издатель (лейбл): Japan 1st Press, SICP 3072
Страна: USA
Продолжительность: 00:58:44

Кодек: ALAC
Битрейт: Lossless

Треклист:
01. The Pretender (4:29)
02. Let It Die (4:05)
03. Erase/Replace (4:13)
04. Long Road To Ruin (3:44)
05. Come Alive (5:10)
06. Stranger Things Have Happened (5:21)
07. Cheer Up, Boys (Your Make Up Is Running) (3:41)
08. Summer's End (4:37)
09. Ballad Of The Beaconsfield Miners (2:32)
10. Statues (3:47)
11. But, Honestly (4:35)
12. Home (4:52)
Bonus Tracks:
13. Once & For All (Demo) * # (3:48)
14. Seda * ^ (3:44)
General
Complete name : /Users/user/Music/Foo Fighters - 2007 Echoes, Silence, Patience & Grace (Japan, BVCP-21552 (88697-15501-2)) (ALAC)/01. The Pretender.m4a
Format : MPEG-4
Format profile : Apple audio with iTunes info
Codec ID : M4A
File size : 31.7 MiB
Duration : 4mn 29s
Overall bit rate mode : Variable
Overall bit rate : 986 Kbps
Album : Echoes, Silence, Patience & Grace US (RCA 88697 11516-2)
Track name : The Pretender
Track name/Position : 1
Performer : Foo Fighters
Genre : Rock
Recorded date : 2007
Encoded date : UTC 2013-07-14 14:39:01
Tagged date : UTC 2013-07-14 14:39:04
Writing application : Easy CD-DA Extractor (http://www.poikosoft.com)
Cover : Yes
Comment : EAC FLAC -8

Audio
ID : 1
Format : ALAC
Codec ID : alac
Codec ID/Info : Apple Lossless Audio Codec
Duration : 4mn 29s
Duration_LastFrame : -71ms
Bit rate mode : Variable
Bit rate : 985 Kbps
Channel(s) : 2 channels
Sampling rate : 44.1 KHz
Bit depth : 16 bits
Stream size : 31.6 MiB (100%)
Language : English
Encoded date : UTC 2013-07-14 14:39:01
Tagged date : UTC 2013-07-14 14:39:04

General
Complete name : /Users/user/Music/Foo Fighters - 2007 Echoes, Silence, Patience & Grace (Japan, BVCP-21552 (88697-15501-2)) (ALAC)/02. Let It Die.m4a
Format : MPEG-4
Format profile : Apple audio with iTunes info
Codec ID : M4A
File size : 27.2 MiB
Duration : 4mn 5s
Overall bit rate mode : Variable
Overall bit rate : 931 Kbps
Album : Echoes, Silence, Patience & Grace US (RCA 88697 11516-2)
Track name : Let It Die
Track name/Position : 2
Performer : Foo Fighters
Genre : Rock
Recorded date : 2007
Encoded date : UTC 2013-07-14 14:39:01
Tagged date : UTC 2013-07-14 14:39:05
Writing application : Easy CD-DA Extractor (http://www.poikosoft.com)
Cover : Yes
Comment : EAC FLAC -8

Audio
ID : 1
Format : ALAC
Codec ID : alac
Codec ID/Info : Apple Lossless Audio Codec
Duration : 4mn 5s
Duration_LastFrame : -42ms
Bit rate mode : Variable
Bit rate : 930 Kbps
Channel(s) : 2 channels
Sampling rate : 44.1 KHz
Bit depth : 16 bits
Stream size : 27.2 MiB (100%)
Language : English
Encoded date : UTC 2013-07-14 14:39:01
Tagged date : UTC 2013-07-14 14:39:04

General
Complete name : /Users/user/Music/Foo Fighters - 2007 Echoes, Silence, Patience & Grace (Japan, BVCP-21552 (88697-15501-2)) (ALAC)/03. EraseReplace.m4a
Format : MPEG-4
Format profile : Apple audio with iTunes info
Codec ID : M4A
File size : 31.1 MiB
Duration : 4mn 13s
Overall bit rate mode : Variable
Overall bit rate : 1 030 Kbps
Album : Echoes, Silence, Patience & Grace US (RCA 88697 11516-2)
Track name : Erase/Replace
Track name/Position : 3
Performer : Foo Fighters
Genre : Rock
Recorded date : 2007
Encoded date : UTC 2013-07-14 14:39:04
Tagged date : UTC 2013-07-14 14:39:07
Writing application : Easy CD-DA Extractor (http://www.poikosoft.com)
Cover : Yes
Comment : EAC FLAC -8

Audio
ID : 1
Format : ALAC
Codec ID : alac
Codec ID/Info : Apple Lossless Audio Codec
Duration : 4mn 13s
Duration_LastFrame : -57ms
Bit rate mode : Variable
Bit rate : 1 029 Kbps
Channel(s) : 2 channels
Sampling rate : 44.1 KHz
Bit depth : 16 bits
Stream size : 31.1 MiB (100%)
Language : English
Encoded date : UTC 2013-07-14 14:39:04
Tagged date : UTC 2013-07-14 14:39:07

General
Complete name : /Users/user/Music/Foo Fighters - 2007 Echoes, Silence, Patience & Grace (Japan, BVCP-21552 (88697-15501-2)) (ALAC)/04. Long Road To Ruin.m4a
Format : MPEG-4
Format profile : Apple audio with iTunes info
Codec ID : M4A
File size : 28.4 MiB
Duration : 3mn 44s
Overall bit rate mode : Variable
Overall bit rate : 1 058 Kbps
Album : Echoes, Silence, Patience & Grace US (RCA 88697 11516-2)
Track name : Long Road To Ruin
Track name/Position : 4
Performer : Foo Fighters
Genre : Rock
Recorded date : 2007
Encoded date : UTC 2013-07-14 14:39:05
Tagged date : UTC 2013-07-14 14:39:07
Writing application : Easy CD-DA Extractor (http://www.poikosoft.com)
Cover : Yes
Comment : EAC FLAC -8

Audio
ID : 1
Format : ALAC
Codec ID : alac
Codec ID/Info : Apple Lossless Audio Codec
Duration : 3mn 44s
Duration_LastFrame : -75ms
Bit rate mode : Variable
Bit rate : 1 056 Kbps
Channel(s) : 2 channels
Sampling rate : 44.1 KHz
Bit depth : 16 bits
Stream size : 28.3 MiB (100%)
Language : English
Encoded date : UTC 2013-07-14 14:39:05
Tagged date : UTC 2013-07-14 14:39:07

General
Complete name : /Users/user/Music/Foo Fighters - 2007 Echoes, Silence, Patience & Grace (Japan, BVCP-21552 (88697-15501-2)) (ALAC)/05. Come Alive.m4a
Format : MPEG-4
Format profile : Apple audio with iTunes info
Codec ID : M4A
File size : 33.1 MiB
Duration : 5mn 10s
Overall bit rate mode : Variable
Overall bit rate : 894 Kbps
Album : Echoes, Silence, Patience & Grace US (RCA 88697 11516-2)
Track name : Come Alive
Track name/Position : 5
Performer : Foo Fighters
Genre : Rock
Recorded date : 2007
Encoded date : UTC 2013-07-14 14:39:07
Tagged date : UTC 2013-07-14 14:39:11
Writing application : Easy CD-DA Extractor (http://www.poikosoft.com)
Cover : Yes
Comment : EAC FLAC -8

Audio
ID : 1
Format : ALAC
Codec ID : alac
Codec ID/Info : Apple Lossless Audio Codec
Duration : 5mn 10s
Duration_LastFrame : -83ms
Bit rate mode : Variable
Bit rate : 893 Kbps
Channel(s) : 2 channels
Sampling rate : 44.1 KHz
Bit depth : 16 bits
Stream size : 33.1 MiB (100%)
Language : English
Encoded date : UTC 2013-07-14 14:39:07
Tagged date : UTC 2013-07-14 14:39:11

General
Complete name : /Users/user/Music/Foo Fighters - 2007 Echoes, Silence, Patience & Grace (Japan, BVCP-21552 (88697-15501-2)) (ALAC)/06. Stranger Things Have Happened.m4a
Format : MPEG-4
Format profile : Apple audio with iTunes info
Codec ID : M4A
File size : 31.5 MiB
Duration : 5mn 21s
Overall bit rate mode : Variable
Overall bit rate : 822 Kbps
Album : Echoes, Silence, Patience & Grace US (RCA 88697 11516-2)
Track name : Stranger Things Have Happened
Track name/Position : 6
Performer : Foo Fighters
Genre : Rock
Recorded date : 2007
Encoded date : UTC 2013-07-14 14:39:08
Tagged date : UTC 2013-07-14 14:39:12
Writing application : Easy CD-DA Extractor (http://www.poikosoft.com)
Cover : Yes
Comment : EAC FLAC -8

Audio
ID : 1
Format : ALAC
Codec ID : alac
Codec ID/Info : Apple Lossless Audio Codec
Duration : 5mn 21s
Duration_LastFrame : -32ms
Bit rate mode : Variable
Bit rate : 821 Kbps
Channel(s) : 2 channels
Sampling rate : 44.1 KHz
Bit depth : 16 bits
Stream size : 31.4 MiB (100%)
Language : English
Encoded date : UTC 2013-07-14 14:39:08
Tagged date : UTC 2013-07-14 14:39:12

General
Complete name : /Users/user/Music/Foo Fighters - 2007 Echoes, Silence, Patience & Grace (Japan, BVCP-21552 (88697-15501-2)) (ALAC)/07. Cheer Up, Boys (Your Make Up Is Running).m4a
Format : MPEG-4
Format profile : Apple audio with iTunes info
Codec ID : M4A
File size : 28.3 MiB
Duration : 3mn 41s
Overall bit rate mode : Variable
Overall bit rate : 1 072 Kbps
Album : Echoes, Silence, Patience & Grace US (RCA 88697 11516-2)
Track name : Cheer Up, Boys (Your Make Up Is Running)
Track name/Position : 7
Performer : Foo Fighters
Genre : Rock
Recorded date : 2007
Encoded date : UTC 2013-07-14 14:39:11
Tagged date : UTC 2013-07-14 14:39:15
Writing application : Easy CD-DA Extractor (http://www.poikosoft.com)
Cover : Yes
Comment : EAC FLAC -8

Audio
ID : 1
Format : ALAC
Codec ID : alac
Codec ID/Info : Apple Lossless Audio Codec
Duration : 3mn 41s
Duration_LastFrame : -66ms
Bit rate mode : Variable
Bit rate : 1 071 Kbps
Channel(s) : 2 channels
Sampling rate : 44.1 KHz
Bit depth : 16 bits
Stream size : 28.2 MiB (100%)
Language : English
Encoded date : UTC 2013-07-14 14:39:11
Tagged date : UTC 2013-07-14 14:39:15

General
Complete name : /Users/user/Music/Foo Fighters - 2007 Echoes, Silence, Patience & Grace (Japan, BVCP-21552 (88697-15501-2)) (ALAC)/08. Summer's End.m4a
Format : MPEG-4
Format profile : Apple audio with iTunes info
Codec ID : M4A
File size : 33.1 MiB
Duration : 4mn 37s
Overall bit rate mode : Variable
Overall bit rate : 999 Kbps
Album : Echoes, Silence, Patience & Grace US (RCA 88697 11516-2)
Track name : Summer's End
Track name/Position : 8
Performer : Foo Fighters
Genre : Rock
Recorded date : 2007
Encoded date : UTC 2013-07-14 14:39:12
Tagged date : UTC 2013-07-14 14:39:17
Writing application : Easy CD-DA Extractor (http://www.poikosoft.com)
Cover : Yes
Comment : EAC FLAC -8

Audio
ID : 1
Format : ALAC
Codec ID : alac
Codec ID/Info : Apple Lossless Audio Codec
Duration : 4mn 37s
Duration_LastFrame : -16ms
Bit rate mode : Variable
Bit rate : 998 Kbps
Channel(s) : 2 channels
Sampling rate : 44.1 KHz
Bit depth : 16 bits
Stream size : 33.1 MiB (100%)
Language : English
Encoded date : UTC 2013-07-14 14:39:12
Tagged date : UTC 2013-07-14 14:39:16

General
Complete name : /Users/user/Music/Foo Fighters - 2007 Echoes, Silence, Patience & Grace (Japan, BVCP-21552 (88697-15501-2)) (ALAC)/09. Ballad Of The Beaconsfield Miners.m4a
Format : MPEG-4
Format profile : Apple audio with iTunes info
Codec ID : M4A
File size : 13.6 MiB
Duration : 2mn 32s
Overall bit rate mode : Variable
Overall bit rate : 748 Kbps
Album : Echoes, Silence, Patience & Grace US (RCA 88697 11516-2)
Track name : Ballad Of The Beaconsfield Miners
Track name/Position : 9
Performer : Foo Fighters
Genre : Rock
Recorded date : 2007
Encoded date : UTC 2013-07-14 14:39:15
Tagged date : UTC 2013-07-14 14:39:16
Writing application : Easy CD-DA Extractor (http://www.poikosoft.com)
Cover : Yes
Comment : EAC FLAC -8

Audio
ID : 1
Format : ALAC
Codec ID : alac
Codec ID/Info : Apple Lossless Audio Codec
Duration : 2mn 32s
Duration_LastFrame : -17ms
Bit rate mode : Variable
Bit rate : 746 Kbps
Channel(s) : 2 channels
Sampling rate : 44.1 KHz
Bit depth : 16 bits
Stream size : 13.5 MiB (100%)
Language : English
Encoded date : UTC 2013-07-14 14:39:15
Tagged date : UTC 2013-07-14 14:39:16

General
Complete name : /Users/user/Music/Foo Fighters - 2007 Echoes, Silence, Patience & Grace (Japan, BVCP-21552 (88697-15501-2)) (ALAC)/10. Statues.m4a
Format : MPEG-4
Format profile : Apple audio with iTunes info
Codec ID : M4A
File size : 25.5 MiB
Duration : 3mn 47s
Overall bit rate mode : Variable
Overall bit rate : 937 Kbps
Album : Echoes, Silence, Patience & Grace US (RCA 88697 11516-2)
Track name : Statues
Track name/Position : 10
Performer : Foo Fighters
Genre : Rock
Recorded date : 2007
Encoded date : UTC 2013-07-14 14:39:16
Tagged date : UTC 2013-07-14 14:39:19
Writing application : Easy CD-DA Extractor (http://www.poikosoft.com)
Cover : Yes
Comment : EAC FLAC -8

Audio
ID : 1
Format : ALAC
Codec ID : alac
Codec ID/Info : Apple Lossless Audio Codec
Duration : 3mn 47s
Duration_LastFrame : -21ms
Bit rate mode : Variable
Bit rate : 936 Kbps
Channel(s) : 2 channels
Sampling rate : 44.1 KHz
Bit depth : 16 bits
Stream size : 25.4 MiB (100%)
Language : English
Encoded date : UTC 2013-07-14 14:39:16
Tagged date : UTC 2013-07-14 14:39:19

General
Complete name : /Users/user/Music/Foo Fighters - 2007 Echoes, Silence, Patience & Grace (Japan, BVCP-21552 (88697-15501-2)) (ALAC)/11. But, Honestly.m4a
Format : MPEG-4
Format profile : Apple audio with iTunes info
Codec ID : M4A
File size : 33.0 MiB
Duration : 4mn 35s
Overall bit rate mode : Variable
Overall bit rate : 1 003 Kbps
Album : Echoes, Silence, Patience & Grace US (RCA 88697 11516-2)
Track name : But, Honestly
Track name/Position : 11
Performer : Foo Fighters
Genre : Rock
Recorded date : 2007
Encoded date : UTC 2013-07-14 14:39:17
Tagged date : UTC 2013-07-14 14:39:21
Writing application : Easy CD-DA Extractor (http://www.poikosoft.com)
Cover : Yes
Comment : EAC FLAC -8

Audio
ID : 1
Format : ALAC
Codec ID : alac
Codec ID/Info : Apple Lossless Audio Codec
Duration : 4mn 35s
Duration_LastFrame : -54ms
Bit rate mode : Variable
Bit rate : 1 002 Kbps
Channel(s) : 2 channels
Sampling rate : 44.1 KHz
Bit depth : 16 bits
Stream size : 32.9 MiB (100%)
Language : English
Encoded date : UTC 2013-07-14 14:39:17
Tagged date : UTC 2013-07-14 14:39:21

General
Complete name : /Users/user/Music/Foo Fighters - 2007 Echoes, Silence, Patience & Grace (Japan, BVCP-21552 (88697-15501-2)) (ALAC)/12. Home.m4a
Format : MPEG-4
Format profile : Apple audio with iTunes info
Codec ID : M4A
File size : 24.3 MiB
Duration : 4mn 53s
Overall bit rate mode : Variable
Overall bit rate : 695 Kbps
Album : Echoes, Silence, Patience & Grace US (RCA 88697 11516-2)
Track name : Home
Track name/Position : 12
Performer : Foo Fighters
Genre : Rock
Recorded date : 2007
Encoded date : UTC 2013-07-14 14:39:20
Tagged date : UTC 2013-07-14 14:39:23
Writing application : Easy CD-DA Extractor (http://www.poikosoft.com)
Cover : Yes
Comment : EAC FLAC -8

Audio
ID : 1
Format : ALAC
Codec ID : alac
Codec ID/Info : Apple Lossless Audio Codec
Duration : 4mn 53s
Duration_LastFrame : -47ms
Bit rate mode : Variable
Bit rate : 694 Kbps
Channel(s) : 2 channels
Sampling rate : 44.1 KHz
Bit depth : 16 bits
Stream size : 24.3 MiB (100%)
Language : English
Encoded date : UTC 2013-07-14 14:39:20
Tagged date : UTC 2013-07-14 14:39:23

General
Complete name : /Users/user/Music/Foo Fighters - 2007 Echoes, Silence, Patience & Grace (Japan, BVCP-21552 (88697-15501-2)) (ALAC)/Foo Fighters - Echoes, Silence, Patience & Grace (Japan, BVCP-21552 (88697-15501-2)).log
File size : 12.3 KiB
Код:

Exact Audio Copy V1.0 beta 3 from 29. August 2011

EAC extraction logfile from 11. July 2012, 10:27

Foo Fighters / Echoes, Silence, Patience & Grace (Japan, BVCP-21552 (88697-15501-2))

Used drive  : HP      DVD Writer 1070d   Adapter: 3  ID: 0

Read mode               : Secure
Utilize accurate stream : Yes
Defeat audio cache      : Yes
Make use of C2 pointers : No

Read offset correction                      : 6
Overread into Lead-In and Lead-Out          : No
Fill up missing offset samples with silence : Yes
Delete leading and trailing silent blocks   : No
Null samples used in CRC calculations       : Yes
Used interface                              : Native Win32 interface for Win NT & 2000
Gap handling                                : Appended to previous track

Used output format              : User Defined Encoder
Selected bitrate                : 192 kBit/s
Quality                         : High
Add ID3 tag                     : No
Command line compressor         : C:\Program Files (x86)\FLAC\flac.exe
Additional command line options : -T "artist=%artist%" -T "title=%title%" -T "album=%albumtitle%" -T "date=%year%" -T "tracknumber=%tracknr%" -T "genre=%genre%" -5 %source%

TOC of the extracted CD

     Track |   Start  |  Length  | Start sector | End sector
    ---------------------------------------------------------
        1  |  0:00.00 |  4:29.25 |         0    |    20199
        2  |  4:29.25 |  4:05.27 |     20200    |    38601
        3  |  8:34.52 |  4:13.10 |     38602    |    57586
        4  | 12:47.62 |  3:44.68 |     57587    |    74454
        5  | 16:32.55 |  5:10.45 |     74455    |    97749
        6  | 21:43.25 |  5:21.04 |     97750    |   121828
        7  | 27:04.29 |  3:41.13 |    121829    |   138416
        8  | 30:45.42 |  4:37.73 |    138417    |   159264
        9  | 35:23.40 |  2:32.14 |    159265    |   170678
       10  | 37:55.54 |  3:47.63 |    170679    |   187766
       11  | 41:43.42 |  4:35.53 |    187767    |   208444
       12  | 46:19.20 |  4:52.60 |    208445    |   230404
       13  | 51:12.05 |  3:48.06 |    230405    |   247510
       14  | 55:00.11 |  3:44.39 |    247511    |   264349

Track  1

     Filename G:\01 - The Pretender.wav

     Pre-gap length  0:00:02.00

     Peak level 98.8 %
     Extraction speed 1.8 X
     Track quality 100.0 %
     Test CRC 92EE2733
     Copy CRC 92EE2733
     Accurately ripped (confidence 3)  [505A9892]  (AR v2)
     Copy OK

Track  2

     Filename G:\02 - Let It Die.wav

     Peak level 100.0 %
     Extraction speed 1.8 X
     Track quality 99.9 %
     Test CRC A945233F
     Copy CRC A945233F
     Accurately ripped (confidence 3)  [5DA11138]  (AR v2)
     Copy OK

Track  3

     Filename G:\03 - Erase,Replace.wav

     Pre-gap length  0:00:00.27

     Peak level 98.8 %
     Extraction speed 2.2 X
     Track quality 100.0 %
     Test CRC DA577E84
     Copy CRC DA577E84
     Accurately ripped (confidence 3)  [690C2308]  (AR v2)
     Copy OK

Track  4

     Filename G:\04 - Long Road To Ruin.wav

     Peak level 100.0 %
     Extraction speed 2.4 X
     Track quality 100.0 %
     Test CRC A82B7855
     Copy CRC A82B7855
     Accurately ripped (confidence 3)  [B43E516C]  (AR v2)
     Copy OK

Track  5

     Filename G:\05 - Come Alive.wav

     Peak level 100.0 %
     Extraction speed 2.6 X
     Track quality 100.0 %
     Test CRC 9D3F87CA
     Copy CRC 9D3F87CA
     Accurately ripped (confidence 3)  [2255ADEF]  (AR v2)
     Copy OK

Track  6

     Filename G:\06 - Stranger Things Have Happened.wav

     Peak level 82.9 %
     Extraction speed 2.4 X
     Track quality 99.9 %
     Test CRC 9B17AC1D
     Copy CRC 9B17AC1D
     Accurately ripped (confidence 3)  [4BE796A8]  (AR v2)
     Copy OK

Track  7

     Filename G:\07 - Cheer Up, Boys (Your Make Up Is Running).wav

     Peak level 100.0 %
     Extraction speed 2.9 X
     Track quality 100.0 %
     Test CRC 8B6F7FA8
     Copy CRC 8B6F7FA8
     Accurately ripped (confidence 3)  [94915208]  (AR v2)
     Copy OK

Track  8

     Filename G:\08 - Summer's End.wav

     Peak level 100.0 %
     Extraction speed 3.1 X
     Track quality 100.0 %
     Test CRC D1DDC07F
     Copy CRC D1DDC07F
     Accurately ripped (confidence 3)  [AA662B60]  (AR v2)
     Copy OK

Track  9

     Filename G:\09 - Ballad Of The Beaconsfield Miners.wav

     Peak level 90.9 %
     Extraction speed 2.9 X
     Track quality 100.0 %
     Test CRC 3FBBF4C4
     Copy CRC 3FBBF4C4
     Accurately ripped (confidence 3)  [14677E94]  (AR v2)
     Copy OK

Track 10

     Filename G:\10 - Statues.wav

     Peak level 100.0 %
     Extraction speed 3.2 X
     Track quality 100.0 %
     Test CRC 8A120D07
     Copy CRC 8A120D07
     Accurately ripped (confidence 3)  [86ABB8C6]  (AR v2)
     Copy OK

Track 11

     Filename G:\11 - But, Honestly.wav

     Peak level 100.0 %
     Extraction speed 3.5 X
     Track quality 100.0 %
     Test CRC E1590402
     Copy CRC E1590402
     Accurately ripped (confidence 3)  [712D5CBA]  (AR v2)
     Copy OK

Track 12

     Filename G:\12 - Home.wav

     Peak level 100.0 %
     Extraction speed 2.8 X
     Track quality 99.9 %
     Test CRC 43B1ED97
     Copy CRC 43B1ED97
     Accurately ripped (confidence 3)  [9D99E0DC]  (AR v2)
     Copy OK

Track 13

     Filename G:\13 - Once & For All (Demo) (Bonus Track).wav

     Pre-gap length  0:00:00.08

     Peak level 98.8 %
     Extraction speed 2.7 X
     Track quality 99.9 %
     Test CRC 8E32D09A
     Copy CRC 8E32D09A
     Accurately ripped (confidence 3)  [8EDBB60F]  (AR v2)
     Copy OK

Track 14

     Filename G:\14 - Seda (Bonus Track).wav

     Pre-gap length  0:00:00.12

     Peak level 93.7 %
     Extraction speed 3.7 X
     Track quality 100.0 %
     Test CRC 548E4F6B
     Copy CRC 548E4F6B
     Accurately ripped (confidence 3)  [08F7D949]  (AR v2)
     Copy OK

All tracks accurately ripped

No errors occurred

End of status report

==== Log checksum F4FA1426434573BA6E20F160A8689E7A9DB5EF51EB9FCD95E6FE5F63516B0FB1 ====
Код:

-----------------------

DON'T MODIFY THIS FILE

-----------------------

PERFORMER: auCDtect Task Manager, ver. 1.6.0 RC1 build 1.6.0.1
Copyright (c) 2008-2010 y-soft. All rights reserved
http://y-soft.org

ANALYZER: auCDtect: CD records authenticity detector, version 0.8.2
Copyright (c) 2004 Oleg Berngardt. All rights reserved.
Copyright (c) 2004 Alexander Djourik. All rights reserved.

FILE: 12. Home.m4a
  Size: 25491235 Hash: C396FCB293AD24D79E7E36D5975A696C Accuracy: -m0
  Conclusion: CDDA 58%
  Signature: 3B10E502B0B06377AF3124B81C8AA646B54A8E1F
FILE: 11. But, Honestly.m4a
  Size: 34574693 Hash: E085A0C9B6AC6E120E40A948EE4FE7B8 Accuracy: -m0
  Conclusion: CDDA 100%
  Signature: B7221E6989D1C774415283BD651A3745DB913ABA
FILE: 10. Statues.m4a
  Size: 26687873 Hash: F2ADAFA649EE72EF64BC65E7B49C77FE Accuracy: -m0
  Conclusion: CDDA 100%
  Signature: 666C2882B3B8FC592BB4ADC7D7C68B054EF9F1D7
FILE: 09. Ballad Of The Beaconsfield Miners.m4a
  Size: 14239905 Hash: 4288116CB236841FA741BED87A268F7A Accuracy: -m0
  Conclusion: CDDA 100%
  Signature: 8FC1D73D67A52A0E46EF5BA60CF2CC51F8EDE3CC
FILE: 08. Summer's End.m4a
  Size: 34706933 Hash: 60DFB5CA83D24D8ACBB01C4C7802296B Accuracy: -m0
  Conclusion: CDDA 100%
  Signature: 0D8C8AFFA055A2C7C75AB8D53D9C69A156CC7C1E
FILE: 07. Cheer Up, Boys (Your Make Up Is Running).m4a
  Size: 29641376 Hash: A7732B40DA34C1E7E9E89232EE60ED6D Accuracy: -m0
  Conclusion: CDDA 99%
  Signature: D412F6FD46AAF8534FE177AB747B9A0970C5725D
FILE: 06. Stranger Things Have Happened.m4a
  Size: 33002116 Hash: 4EDA7530162289D0F9EA1904B72C2254 Accuracy: -m0
  Conclusion: CDDA 100%
  Signature: 7BEA460C6DE9D53CAF86020F143F6105E8CDAA07
FILE: 05. Come Alive.m4a
  Size: 34715619 Hash: 17BFF41EB8C66B2A60AA28721E29DC15 Accuracy: -m0
  Conclusion: CDDA 100%
  Signature: F7093CE365F6E9151283C93FB244D57A38B4D0AB
FILE: 04. Long Road To Ruin.m4a
  Size: 29727214 Hash: 7883C30082C85FF33893EC526B86839E Accuracy: -m0
  Conclusion: CDDA 100%
  Signature: E66D3EA6ED3966E2CC64CF4B0DF18924A670E871
FILE: 03. EraseReplace.m4a
  Size: 32600609 Hash: A7821B94FA92DAC865414011DC9C3CE6 Accuracy: -m0
  Conclusion: CDDA 100%
  Signature: CCD3D21BC2A967D31FB08A645D8C693428DB9A73
FILE: 02. Let It Die.m4a
  Size: 28550198 Hash: 2B1113ABCF9DD2E7AF00D8FE56F33821 Accuracy: -m0
  Conclusion: CDDA 100%
  Signature: 1C5BC1E67BD98F29C5D5B8A0DB4CC365C38A6CD8
FILE: 01. The Pretender.m4a
  Size: 33203328 Hash: CE913FC13CF647F2943C44507FF77C73 Accuracy: -m0
  Conclusion: CDDA 100%
  Signature: 4F43C3974BA898000EE93431FF48BDA536488AEB
Время раздачи: 24/7 до 3 скачавших
[NNM-Club.ru]_Foo Fighters - 2007 Echoes, Silence, Patience & Grace (Japan, BVCP-21552 (88697-15501-2)) (ALAC).torrent
 Торрент: Платиновая раздача  Зарегистрирован
 
Скачать


 Зарегистрирован:   16 Июл 2013 12:55:00
 Размер:   341 MB  (
 Рейтинг:    (Голосов: 7)
 Поблагодарили:   28
 Проверка:   Оформление проверено модератором 16 Июл 2013 19:26:08
Как cкачать  ·  Как раздать  ·  Правильно оформить  ·  Поднять ратио!  
Показать сообщения:   
Начать новую тему   Ответить на тему    Торрент-трекер NNM-Club -> Аудио и Видео -> Музыка Lossless (ALAC) Часовой пояс: GMT + 3
Страница 1 из 1