Классический форум-трекер
canvas not supported
Нас вместе: 4 094 731

Foo Fighters - Wasting Light (Japan edition) (2011) [ALAC|Lossless]<Alternative rock, post-grunge, hard rock>


 
 
RSS
Начать новую тему   Ответить на тему    Торрент-трекер NNM-Club -> Аудио и Видео -> Музыка Lossless (ALAC)
Автор Сообщение
CafeTea ®
Покровитель талантов
 
Стаж: 8 лет 7 мес.
Сообщений: 507
Ratio: 7,41
Поблагодарили: 20135
100%
Foo Fighters - Wasting Light (Japan edition) (2011)
Год: 2011
Жанр: Alternative rock, post-grunge, hard rock
Издатель (лейбл): Japan 1st Press, SICP 3072
Страна: USA
Продолжительность: 00:52:08

Кодек: ALAC
Битрейт: Lossless

Треклист:
01. Bridge Burning (4:46)
02. Rope (4:19)
03. Dear Rosemary (4:26)
04. White Limo (3:22)
05. Arlandria (4:28)
06. These Days (4:58)
07. Back & Forth (3:52)
08. A Matter Of Time (4:36)
09. Miss The Misery (4:33)
10. I Should Have Known (4:15)
11. Walk (4:16)
Bonus Track:
12. Better Off (4:12)
General
Complete name : /Users/user/Music/Foo Fighters - 2011 Wasting Light (Japan 1st Press, SICP 3072) (ALAC)/01 – Bridge Burning.m4a
Format : MPEG-4
Format profile : Apple audio with iTunes info
Codec ID : M4A
File size : 38.1 MiB
Duration : 4mn 46s
Overall bit rate mode : Variable
Overall bit rate : 1 114 Kbps
Album : Wasting Light Japan 1st Press (SICP 3072)
Track name : Bridge Burning
Track name/Position : 1
Performer : Foo Fighters
Genre : Rock
Recorded date : 2011
Encoded date : UTC 2013-07-16 09:38:11
Tagged date : UTC 2013-07-16 09:38:15
Writing application : Easy CD-DA Extractor (http://www.poikosoft.com)
Cover : Yes
Comment : EAC FLAC -8

Audio
ID : 1
Format : ALAC
Codec ID : alac
Codec ID/Info : Apple Lossless Audio Codec
Duration : 4mn 46s
Duration_LastFrame : -53ms
Bit rate mode : Variable
Bit rate : 1 109 Kbps
Channel(s) : 2 channels
Sampling rate : 44.1 KHz
Bit depth : 16 bits
Stream size : 37.9 MiB (100%)
Language : English
Encoded date : UTC 2013-07-16 09:38:11
Tagged date : UTC 2013-07-16 09:38:15

General
Complete name : /Users/user/Music/Foo Fighters - 2011 Wasting Light (Japan 1st Press, SICP 3072) (ALAC)/02 – Rope.m4a
Format : MPEG-4
Format profile : Apple audio with iTunes info
Codec ID : M4A
File size : 34.0 MiB
Duration : 4mn 19s
Overall bit rate mode : Variable
Overall bit rate : 1 101 Kbps
Album : Wasting Light Japan 1st Press (SICP 3072)
Track name : Rope
Track name/Position : 2
Performer : Foo Fighters
Genre : Rock
Recorded date : 2011
Encoded date : UTC 2013-07-16 09:38:11
Tagged date : UTC 2013-07-16 09:38:15
Writing application : Easy CD-DA Extractor (http://www.poikosoft.com)
Cover : Yes
Comment : EAC FLAC -8

Audio
ID : 1
Format : ALAC
Codec ID : alac
Codec ID/Info : Apple Lossless Audio Codec
Duration : 4mn 19s
Duration_LastFrame : -15ms
Bit rate mode : Variable
Bit rate : 1 096 Kbps
Channel(s) : 2 channels
Sampling rate : 44.1 KHz
Bit depth : 16 bits
Stream size : 33.8 MiB (100%)
Language : English
Encoded date : UTC 2013-07-16 09:38:11
Tagged date : UTC 2013-07-16 09:38:15

General
Complete name : /Users/user/Music/Foo Fighters - 2011 Wasting Light (Japan 1st Press, SICP 3072) (ALAC)/03 – Dear Rosemary.m4a
Format : MPEG-4
Format profile : Apple audio with iTunes info
Codec ID : M4A
File size : 35.2 MiB
Duration : 4mn 26s
Overall bit rate mode : Variable
Overall bit rate : 1 107 Kbps
Album : Wasting Light Japan 1st Press (SICP 3072)
Track name : Dear Rosemary
Track name/Position : 3
Performer : Foo Fighters
Genre : Rock
Recorded date : 2011
Encoded date : UTC 2013-07-16 09:38:15
Tagged date : UTC 2013-07-16 09:38:19
Writing application : Easy CD-DA Extractor (http://www.poikosoft.com)
Cover : Yes
Comment : EAC FLAC -8

Audio
ID : 1
Format : ALAC
Codec ID : alac
Codec ID/Info : Apple Lossless Audio Codec
Duration : 4mn 26s
Duration_LastFrame : -32ms
Bit rate mode : Variable
Bit rate : 1 102 Kbps
Channel(s) : 2 channels
Sampling rate : 44.1 KHz
Bit depth : 16 bits
Stream size : 35.0 MiB (100%)
Language : English
Encoded date : UTC 2013-07-16 09:38:15
Tagged date : UTC 2013-07-16 09:38:19

General
Complete name : /Users/user/Music/Foo Fighters - 2011 Wasting Light (Japan 1st Press, SICP 3072) (ALAC)/04 – White Limo.m4a
Format : MPEG-4
Format profile : Apple audio with iTunes info
Codec ID : M4A
File size : 26.5 MiB
Duration : 3mn 22s
Overall bit rate mode : Variable
Overall bit rate : 1 099 Kbps
Album : Wasting Light Japan 1st Press (SICP 3072)
Track name : White Limo
Track name/Position : 4
Performer : Foo Fighters
Genre : Rock
Recorded date : 2011
Encoded date : UTC 2013-07-16 09:38:15
Tagged date : UTC 2013-07-16 09:38:19
Writing application : Easy CD-DA Extractor (http://www.poikosoft.com)
Cover : Yes
Comment : EAC FLAC -8

Audio
ID : 1
Format : ALAC
Codec ID : alac
Codec ID/Info : Apple Lossless Audio Codec
Duration : 3mn 22s
Duration_LastFrame : -11ms
Bit rate mode : Variable
Bit rate : 1 092 Kbps
Channel(s) : 2 channels
Sampling rate : 44.1 KHz
Bit depth : 16 bits
Stream size : 26.4 MiB (99%)
Language : English
Encoded date : UTC 2013-07-16 09:38:15
Tagged date : UTC 2013-07-16 09:38:19

General
Complete name : /Users/user/Music/Foo Fighters - 2011 Wasting Light (Japan 1st Press, SICP 3072) (ALAC)/05 – Arlandria.m4a
Format : MPEG-4
Format profile : Apple audio with iTunes info
Codec ID : M4A
File size : 34.1 MiB
Duration : 4mn 28s
Overall bit rate mode : Variable
Overall bit rate : 1 068 Kbps
Album : Wasting Light Japan 1st Press (SICP 3072)
Track name : Arlandria
Track name/Position : 5
Performer : Foo Fighters
Genre : Rock
Recorded date : 2011
Encoded date : UTC 2013-07-16 09:38:19
Tagged date : UTC 2013-07-16 09:38:23
Writing application : Easy CD-DA Extractor (http://www.poikosoft.com)
Cover : Yes
Comment : EAC FLAC -8

Audio
ID : 1
Format : ALAC
Codec ID : alac
Codec ID/Info : Apple Lossless Audio Codec
Duration : 4mn 28s
Duration_LastFrame : -77ms
Bit rate mode : Variable
Bit rate : 1 063 Kbps
Channel(s) : 2 channels
Sampling rate : 44.1 KHz
Bit depth : 16 bits
Stream size : 34.0 MiB (100%)
Language : English
Encoded date : UTC 2013-07-16 09:38:19
Tagged date : UTC 2013-07-16 09:38:23

General
Complete name : /Users/user/Music/Foo Fighters - 2011 Wasting Light (Japan 1st Press, SICP 3072) (ALAC)/06 – These Days.m4a
Format : MPEG-4
Format profile : Apple audio with iTunes info
Codec ID : M4A
File size : 36.1 MiB
Duration : 4mn 58s
Overall bit rate mode : Variable
Overall bit rate : 1 013 Kbps
Album : Wasting Light Japan 1st Press (SICP 3072)
Track name : These Days
Track name/Position : 6
Performer : Foo Fighters
Genre : Rock
Recorded date : 2011
Encoded date : UTC 2013-07-16 09:38:20
Tagged date : UTC 2013-07-16 09:38:27
Writing application : Easy CD-DA Extractor (http://www.poikosoft.com)
Cover : Yes
Comment : EAC FLAC -8

Audio
ID : 1
Format : ALAC
Codec ID : alac
Codec ID/Info : Apple Lossless Audio Codec
Duration : 4mn 58s
Duration_LastFrame : -9ms
Bit rate mode : Variable
Bit rate : 1 008 Kbps
Channel(s) : 2 channels
Sampling rate : 44.1 KHz
Bit depth : 16 bits
Stream size : 35.9 MiB (100%)
Language : English
Encoded date : UTC 2013-07-16 09:38:20
Tagged date : UTC 2013-07-16 09:38:25

General
Complete name : /Users/user/Music/Foo Fighters - 2011 Wasting Light (Japan 1st Press, SICP 3072) (ALAC)/07 – Back & Forth.m4a
Format : MPEG-4
Format profile : Apple audio with iTunes info
Codec ID : M4A
File size : 31.1 MiB
Duration : 3mn 52s
Overall bit rate mode : Variable
Overall bit rate : 1 121 Kbps
Album : Wasting Light Japan 1st Press (SICP 3072)
Track name : Back & Forth
Track name/Position : 7
Performer : Foo Fighters
Genre : Rock
Recorded date : 2011
Encoded date : UTC 2013-07-16 09:38:24
Tagged date : UTC 2013-07-16 09:38:27
Writing application : Easy CD-DA Extractor (http://www.poikosoft.com)
Cover : Yes
Comment : EAC FLAC -8

Audio
ID : 1
Format : ALAC
Codec ID : alac
Codec ID/Info : Apple Lossless Audio Codec
Duration : 3mn 52s
Duration_LastFrame : -38ms
Bit rate mode : Variable
Bit rate : 1 115 Kbps
Channel(s) : 2 channels
Sampling rate : 44.1 KHz
Bit depth : 16 bits
Stream size : 30.9 MiB (99%)
Language : English
Encoded date : UTC 2013-07-16 09:38:24
Tagged date : UTC 2013-07-16 09:38:27

General
Complete name : /Users/user/Music/Foo Fighters - 2011 Wasting Light (Japan 1st Press, SICP 3072) (ALAC)/08 – A Matter Of Time.m4a
Format : MPEG-4
Format profile : Apple audio with iTunes info
Codec ID : M4A
File size : 36.5 MiB
Duration : 4mn 36s
Overall bit rate mode : Variable
Overall bit rate : 1 109 Kbps
Album : Wasting Light Japan 1st Press (SICP 3072)
Track name : A Matter Of Time
Track name/Position : 8
Performer : Foo Fighters
Genre : Rock
Recorded date : 2011
Encoded date : UTC 2013-07-16 09:38:27
Tagged date : UTC 2013-07-16 09:38:37
Writing application : Easy CD-DA Extractor (http://www.poikosoft.com)
Cover : Yes
Comment : EAC FLAC -8

Audio
ID : 1
Format : ALAC
Codec ID : alac
Codec ID/Info : Apple Lossless Audio Codec
Duration : 4mn 36s
Duration_LastFrame : -91ms
Bit rate mode : Variable
Bit rate : 1 104 Kbps
Channel(s) : 2 channels
Sampling rate : 44.1 KHz
Bit depth : 16 bits
Stream size : 36.4 MiB (100%)
Language : English
Encoded date : UTC 2013-07-16 09:38:27
Tagged date : UTC 2013-07-16 09:38:37

General
Complete name : /Users/user/Music/Foo Fighters - 2011 Wasting Light (Japan 1st Press, SICP 3072) (ALAC)/09 – Miss The Misery.m4a
Format : MPEG-4
Format profile : Apple audio with iTunes info
Codec ID : M4A
File size : 35.9 MiB
Duration : 4mn 33s
Overall bit rate mode : Variable
Overall bit rate : 1 099 Kbps
Album : Wasting Light Japan 1st Press (SICP 3072)
Track name : Miss The Misery
Track name/Position : 9
Performer : Foo Fighters
Genre : Rock
Recorded date : 2011
Encoded date : UTC 2013-07-16 09:38:28
Tagged date : UTC 2013-07-16 09:38:37
Writing application : Easy CD-DA Extractor (http://www.poikosoft.com)
Cover : Yes
Comment : EAC FLAC -8

Audio
ID : 1
Format : ALAC
Codec ID : alac
Codec ID/Info : Apple Lossless Audio Codec
Duration : 4mn 33s
Duration_LastFrame : -51ms
Bit rate mode : Variable
Bit rate : 1 094 Kbps
Channel(s) : 2 channels
Sampling rate : 44.1 KHz
Bit depth : 16 bits
Stream size : 35.7 MiB (100%)
Language : English
Encoded date : UTC 2013-07-16 09:38:28
Tagged date : UTC 2013-07-16 09:38:37

General
Complete name : /Users/user/Music/Foo Fighters - 2011 Wasting Light (Japan 1st Press, SICP 3072) (ALAC)/10 – I Should Have Known.m4a
Format : MPEG-4
Format profile : Apple audio with iTunes info
Codec ID : M4A
File size : 29.8 MiB
Duration : 4mn 15s
Overall bit rate mode : Variable
Overall bit rate : 977 Kbps
Album : Wasting Light Japan 1st Press (SICP 3072)
Track name : I Should Have Known
Track name/Position : 10
Performer : Foo Fighters
Genre : Rock
Recorded date : 2011
Encoded date : UTC 2013-07-16 09:38:37
Tagged date : UTC 2013-07-16 09:38:42
Writing application : Easy CD-DA Extractor (http://www.poikosoft.com)
Cover : Yes
Comment : EAC FLAC -8

Audio
ID : 1
Format : ALAC
Codec ID : alac
Codec ID/Info : Apple Lossless Audio Codec
Duration : 4mn 15s
Duration_LastFrame : -58ms
Bit rate mode : Variable
Bit rate : 971 Kbps
Channel(s) : 2 channels
Sampling rate : 44.1 KHz
Bit depth : 16 bits
Stream size : 29.6 MiB (99%)
Language : English
Encoded date : UTC 2013-07-16 09:38:37
Tagged date : UTC 2013-07-16 09:38:41

General
Complete name : /Users/user/Music/Foo Fighters - 2011 Wasting Light (Japan 1st Press, SICP 3072) (ALAC)/11 – Walk.m4a
Format : MPEG-4
Format profile : Apple audio with iTunes info
Codec ID : M4A
File size : 32.4 MiB
Duration : 4mn 16s
Overall bit rate mode : Variable
Overall bit rate : 1 061 Kbps
Album : Wasting Light Japan 1st Press (SICP 3072)
Track name : Walk
Track name/Position : 11
Performer : Foo Fighters
Genre : Rock
Recorded date : 2011
Encoded date : UTC 2013-07-16 09:38:37
Tagged date : UTC 2013-07-16 09:38:42
Writing application : Easy CD-DA Extractor (http://www.poikosoft.com)
Cover : Yes
Comment : EAC FLAC -8

Audio
ID : 1
Format : ALAC
Codec ID : alac
Codec ID/Info : Apple Lossless Audio Codec
Duration : 4mn 16s
Duration_LastFrame : -15ms
Bit rate mode : Variable
Bit rate : 1 055 Kbps
Channel(s) : 2 channels
Sampling rate : 44.1 KHz
Bit depth : 16 bits
Stream size : 32.3 MiB (99%)
Language : English
Encoded date : UTC 2013-07-16 09:38:37
Tagged date : UTC 2013-07-16 09:38:41

General
Complete name : /Users/user/Music/Foo Fighters - 2011 Wasting Light (Japan 1st Press, SICP 3072) (ALAC)/12 – Better Off (Bonus Track).m4a
Format : MPEG-4
Format profile : Apple audio with iTunes info
Codec ID : M4A
File size : 31.7 MiB
Duration : 4mn 12s
Overall bit rate mode : Variable
Overall bit rate : 1 055 Kbps
Album : Wasting Light Japan 1st Press (SICP 3072)
Track name : Better Off (Bonus Track)
Track name/Position : 12
Performer : Foo Fighters
Genre : Rock
Recorded date : 2011
Encoded date : UTC 2013-07-16 09:38:42
Tagged date : UTC 2013-07-16 09:38:47
Writing application : Easy CD-DA Extractor (http://www.poikosoft.com)
Cover : Yes
Comment : EAC FLAC -8

Audio
ID : 1
Format : ALAC
Codec ID : alac
Codec ID/Info : Apple Lossless Audio Codec
Duration : 4mn 12s
Duration_LastFrame : -87ms
Bit rate mode : Variable
Bit rate : 1 049 Kbps
Channel(s) : 2 channels
Sampling rate : 44.1 KHz
Bit depth : 16 bits
Stream size : 31.6 MiB (99%)
Language : English
Encoded date : UTC 2013-07-16 09:38:42
Tagged date : UTC 2013-07-16 09:38:45

General
Complete name : /Users/user/Music/Foo Fighters - 2011 Wasting Light (Japan 1st Press, SICP 3072) (ALAC)/Foo Fighters - Wasting Light Japan 1st Press (SICP 3072).log
File size : 10.3 KiB
Код:

Exact Audio Copy V1.0 beta 1 from 15. November 2010

EAC extraction logfile from 23. May 2011, 10:43

Foo Fighters / Wasting Light Japan 1st Press (SICP 3072)

Used drive  : HP      DVD Writer 1070d   Adapter: 2  ID: 0

Read mode               : Secure
Utilize accurate stream : Yes
Defeat audio cache      : Yes
Make use of C2 pointers : No

Read offset correction                      : 6
Overread into Lead-In and Lead-Out          : No
Fill up missing offset samples with silence : Yes
Delete leading and trailing silent blocks   : No
Null samples used in CRC calculations       : Yes
Used interface                              : Native Win32 interface for Win NT & 2000
Gap handling                                : Appended to previous track

Used output format              : User Defined Encoder
Selected bitrate                : 128 kBit/s
Quality                         : High
Add ID3 tag                     : No
Command line compressor         : C:\Program Files\Exact Audio Copy\Flac\flac.exe
Additional command line options : -8 -V -T "ARTIST=%a" -T "TITLE=%t" -T "ALBUM=%g" -T "DATE=%y" -T "TRACKNUMBER=%n" -T "GENRE=%m" -T "COMMENT=EAC FLAC -8" %s

TOC of the extracted CD

     Track |   Start  |  Length  | Start sector | End sector
    ---------------------------------------------------------
        1  |  0:00.00 |  4:46.50 |         0    |    21499
        2  |  4:46.50 |  4:19.02 |     21500    |    40926
        3  |  9:05.52 |  4:26.33 |     40927    |    60909
        4  | 13:32.10 |  3:22.42 |     60910    |    76101
        5  | 16:54.52 |  4:28.05 |     76102    |    96206
        6  | 21:22.57 |  4:58.45 |     96207    |   118601
        7  | 26:21.27 |  3:52.33 |    118602    |   136034
        8  | 30:13.60 |  4:36.17 |    136035    |   156751
        9  | 34:50.02 |  4:33.43 |    156752    |   177269
       10  | 39:23.45 |  4:15.55 |    177270    |   196449
       11  | 43:39.25 |  4:16.32 |    196450    |   215681
       12  | 47:55.57 |  4:12.34 |    215682    |   234615

Track  1

     Filename G:\01 – Bridge Burning.wav

     Pre-gap length  0:00:02.00

     Peak level 100.0 %
     Extraction speed 1.8 X
     Track quality 100.0 %
     Test CRC 22832036
     Copy CRC 22832036
     Track not present in AccurateRip database
     Copy OK

Track  2

     Filename G:\02 – Rope.wav

     Peak level 100.0 %
     Extraction speed 2.0 X
     Track quality 100.0 %
     Test CRC 132354DE
     Copy CRC 132354DE
     Track not present in AccurateRip database
     Copy OK

Track  3

     Filename G:\03 – Dear Rosemary.wav

     Peak level 100.0 %
     Extraction speed 2.2 X
     Track quality 100.0 %
     Test CRC A35986A7
     Copy CRC A35986A7
     Track not present in AccurateRip database
     Copy OK

Track  4

     Filename G:\04 – White Limo.wav

     Peak level 100.0 %
     Extraction speed 1.9 X
     Track quality 99.9 %
     Test CRC 09998D78
     Copy CRC 09998D78
     Track not present in AccurateRip database
     Copy OK

Track  5

     Filename G:\05 – Arlandria.wav

     Peak level 100.0 %
     Extraction speed 2.5 X
     Track quality 100.0 %
     Test CRC 48250E65
     Copy CRC 48250E65
     Track not present in AccurateRip database
     Copy OK

Track  6

     Filename G:\06 – These Days.wav

     Peak level 100.0 %
     Extraction speed 2.7 X
     Track quality 100.0 %
     Test CRC DA7C4886
     Copy CRC DA7C4886
     Track not present in AccurateRip database
     Copy OK

Track  7

     Filename G:\07 – Back & Forth.wav

     Peak level 100.0 %
     Extraction speed 2.3 X
     Track quality 99.9 %
     Test CRC E8AC5FB6
     Copy CRC E8AC5FB6
     Track not present in AccurateRip database
     Copy OK

Track  8

     Filename G:\08 – A Matter Of Time.wav

     Peak level 100.0 %
     Extraction speed 3.0 X
     Track quality 100.0 %
     Test CRC 47B5D985
     Copy CRC 47B5D985
     Track not present in AccurateRip database
     Copy OK

Track  9

     Filename G:\09 – Miss The Misery.wav

     Peak level 100.0 %
     Extraction speed 3.1 X
     Track quality 100.0 %
     Test CRC B651793D
     Copy CRC B651793D
     Track not present in AccurateRip database
     Copy OK

Track 10

     Filename G:\10 – I Should Have Known.wav

     Pre-gap length  0:00:01.58

     Peak level 100.0 %
     Extraction speed 3.3 X
     Track quality 100.0 %
     Test CRC C07F677C
     Copy CRC C07F677C
     Track not present in AccurateRip database
     Copy OK

Track 11

     Filename G:\11 – Walk.wav

     Peak level 97.7 %
     Extraction speed 3.4 X
     Track quality 100.0 %
     Test CRC 91E43230
     Copy CRC 91E43230
     Track not present in AccurateRip database
     Copy OK

Track 12

     Filename G:\12 – Better Off (Bonus Track).wav

     Peak level 99.1 %
     Extraction speed 3.5 X
     Track quality 100.0 %
     Test CRC 60D0A0D1
     Copy CRC 60D0A0D1
     Track not present in AccurateRip database
     Copy OK

None of the tracks are present in the AccurateRip database

No errors occurred

End of status report
Код:

-----------------------

DON'T MODIFY THIS FILE

-----------------------

PERFORMER: auCDtect Task Manager, ver. 1.6.0 RC1 build 1.6.0.1
Copyright (c) 2008-2010 y-soft. All rights reserved
http://y-soft.org

ANALYZER: auCDtect: CD records authenticity detector, version 0.8.2
Copyright (c) 2004 Oleg Berngardt. All rights reserved.
Copyright (c) 2004 Alexander Djourik. All rights reserved.

FILE: 12 – Better Off (Bonus Track).m4a
  Size: 33280607 Hash: 1CD1B3F109F64ECBC78EEA3EAAE2EEFA Accuracy: -m0
  Conclusion: MPEG 99%
  Signature: 2201C755BC5E8D6F821471DD23F9927AABD35BDC
FILE: 11 – Walk.m4a
  Size: 34006798 Hash: C22DA5F84A38B7156A8AA65FFEF9B983 Accuracy: -m0
  Conclusion: CDDA 100%
  Signature: BB0F11292C2AF60DBE449BA78F8C295DE1AD10E3
FILE: 10 – I Should Have Known.m4a
  Size: 31226852 Hash: D16306129A022F70DA65920DB3DDBBE4 Accuracy: -m0
  Conclusion: CDDA 99%
  Signature: C87D115401D02F167C56EFA9E37E2624BA5820BA
FILE: 09 – Miss The Misery.m4a
  Size: 37591901 Hash: 8DB87D25515056F5CFB492F233B32B2C Accuracy: -m0
  Conclusion: CDDA 99%
  Signature: D627420285ABD60FD35990F28147BA6CC8D8EA84
FILE: 08 – A Matter Of Time.m4a
  Size: 38300418 Hash: CA32090E2B6D92DC4629052133A12C9F Accuracy: -m0
  Conclusion: CDDA 100%
  Signature: AFFB5822BF0E0C089C29097D613DF19FFDCB06DA
FILE: 07 – Back & Forth.m4a
  Size: 32563054 Hash: F48932F13F26702435A85F6E2564A147 Accuracy: -m0
  Conclusion: CDDA 100%
  Signature: E1A82ACB91F73DED8F005B2C3CFEAB68782D9FCC
FILE: 06 – These Days.m4a
  Size: 37816295 Hash: 7C7D4DE430FF7797D019B09E8D1B1A22 Accuracy: -m0
  Conclusion: CDDA 100%
  Signature: 46923885A5B87FD46CC438318DE08D96A1D53D07
FILE: 05 – Arlandria.m4a
  Size: 35803052 Hash: 3F44D4D4CA755F261BC0DEB2FD608045 Accuracy: -m0
  Conclusion: CDDA 100%
  Signature: 9EE1CE7301AB2D51016725B3114827191003FD7F
FILE: 04 – White Limo.m4a
  Size: 27819152 Hash: A06A3957FF8CEDB25D090B88B9F6CD30 Accuracy: -m0
  Conclusion: CDDA 100%
  Signature: 032EAFFE995A6D59F786227DDC9C3B1865FC562E
FILE: 03 – Dear Rosemary.m4a
  Size: 36862069 Hash: 27BD80D0495E3227DF5E88F2603615FB Accuracy: -m0
  Conclusion: CDDA 99%
  Signature: 8C8122961F60FBA055CB10170A9FD29E6765C874
FILE: 02 – Rope.m4a
  Size: 35661626 Hash: BBA671F64340E940ACD7BA6D1CB4DDBF Accuracy: -m0
  Conclusion: CDDA 100%
  Signature: 1EEB58EB15492529535E0FAB6AA67C63FE6DEDBA
FILE: 01 – Bridge Burning.m4a
  Size: 39914064 Hash: 89E75B5C708B3FB25E1362E80CF679F3 Accuracy: -m0
  Conclusion: CDDA 100%
  Signature: 1E5C5465745F136F40373E99F5857C706A732FCE
Время раздачи: 24/7 до 3 скачавших
[NNM-Club.ru]_Foo Fighters - 2011 Wasting Light (Japan 1st Press, SICP 3072) (ALAC).torrent
 Торрент: Платиновая раздача  Зарегистрирован
 
Скачать


 Зарегистрирован:   16 Июл 2013 13:09:09
 Размер:   401 MB  (
 Рейтинг:    (Голосов: 8)
 Поблагодарили:   39
 Проверка:   Оформление проверено модератором 16 Июл 2013 19:26:00
Как cкачать  ·  Как раздать  ·  Правильно оформить  ·  Поднять ратио!  
Показать сообщения:   
Начать новую тему   Ответить на тему    Торрент-трекер NNM-Club -> Аудио и Видео -> Музыка Lossless (ALAC) Часовой пояс: GMT + 3
Страница 1 из 1