Классический форум-трекер
canvas not supported
Нас вместе: 4 142 801

K-11 / K-11 (2012) BDRip [720p] [EN]


 
 
RSS
Начать новую тему   Ответить на тему    Торрент-трекер NNM-Club -> Архив торрентов -> Архив Видео
Автор Сообщение
smaster67 ®
Покровитель талантов Uploader 300+
Стаж: 11 лет 6 мес.
Сообщений: 7102
Ratio: 221.948
Поблагодарили: 216764
100%
K-11 / K-11 (2012) BDRip [720p] [EN]
Год выпуска: 2012
Жанр: Драма

Описание фильма:
Действие фильма происходит в тюрьме Лос-Анджелеса в разделе под названием K-11, разделе только для гомосексуалистов, транссексуалов и ВИЧ-положительных заключенных. Главная героиня — девушка Баттерфляй, которая пытается выжить в этом аду.

Режиссер: Джулс Мэнн-Стюарт
Актеры: Горан Вишнич, Кейт дель Кастильо, Д.Б. Суини, Портия Даблдэй, Джейсон Мьюз

Продолжительность: 01:28:07
Качество видео: BDRip
Перевод: Отсутствует
Язык: Английский



Видеокодек: MPEG-4 AVC/H.264
Битрейт видео: ~5 563 Kbps
Размер кадра: 1280x704
Аудиокодек: DTS : 6 channels
Битрейт аудио: 1 510 Kbps
Сэмпл: Ссылка
K-11.720p.mkv
Format : Matroska
Format version : Version 2
File size : 4.35 GiB
Duration : 1h 28mn
Overall bit rate : 7 066 Kbps
Encoded date : UTC 2013-07-11 11:48:36
Writing application : mkvmerge v4.6.0 ('Still Crazy After All These Years') built on Mar 10 2011 02:50:32
Writing library : libebml v1.2.0 + libmatroska v1.1.0

Video
ID : 1
Format : AVC
Format/Info : Advanced Video Codec
Format profile : High@L4.1
Format settings, CABAC : Yes
Format settings, ReFrames : 5 frames
Muxing mode : Header stripping
Codec ID : V_MPEG4/ISO/AVC
Duration : 1h 28mn
Bit rate : 5 563 Kbps
Width : 1 280 pixels
Height : 704 pixels
Display aspect ratio : 16:9
Frame rate : 23.976 fps
Color space : YUV
Chroma subsampling : 4:2:0
Bit depth : 8 bits
Scan type : Progressive
Bits/(Pixel*Frame) : 0.257
Stream size : 3.33 GiB (77%)
Writing library : x264 core 133 r2334 a3ac64b
Encoding settings : cabac=1 / ref=5 / deblock=1:0:0 / analyse=0x3:0x133 / me=umh / subme=8 / psy=1 / psy_rd=1.00:0.00 / mixed_ref=1 / me_range=16 / chroma_me=1 / trellis=1 / 8x8dct=1 / cqm=0 / deadzone=21,11 / fast_pskip=0 / chroma_qp_offset=-2 / threads=12 / lookahead_threads=2 / sliced_threads=0 / nr=0 / decimate=1 / interlaced=0 / bluray_compat=0 / constrained_intra=0 / bframes=3 / b_pyramid=2 / b_adapt=1 / b_bias=0 / direct=1 / weightb=1 / open_gop=0 / weightp=2 / keyint=250 / keyint_min=23 / scenecut=40 / intra_refresh=0 / rc_lookahead=40 / rc=2pass / mbtree=1 / bitrate=5563 / ratetol=1.0 / qcomp=0.60 / qpmin=0 / qpmax=69 / qpstep=4 / cplxblur=20.0 / qblur=0.5 / ip_ratio=1.40 / aq=1:1.00
Language : English
Default : Yes
Forced : No

Audio
ID : 2
Format : DTS
Format/Info : Digital Theater Systems
Muxing mode : Header stripping
Codec ID : A_DTS
Duration : 1h 28mn
Bit rate mode : Constant
Bit rate : 1 510 Kbps
Channel(s) : 6 channels
Channel positions : Front: L C R, Side: L R, LFE
Sampling rate : 48.0 KHz
Bit depth : 24 bits
Compression mode : Lossy
Stream size : 952 MiB (21%)
Default : Yes
Forced : No
Скриншоты:


Время раздачи: с 13:00 до 23:00
[NNM-Club.ru]_K-11.720p.mkv.torrent
 Торрент: Серебряная раздча  Зарегистрирован
 
Зарегистрируйтесь и скачайте торрент!
21.9 KB

Примагнититься
 Зарегистрирован:   17 Июл 2013 23:10:40
 Размер:   4.35 GB  (
 Рейтинг:   4.4 (Голосов: 15)
 Поблагодарили:   52
 Проверка:   Оформление проверено модератором 18 Июл 2013 14:05:25
Как cкачать  ·  Как раздать  ·  Правильно оформить  ·  Поднять ратио!  
Lelya_K
Стаж: 9 лет 9 мес.
Сообщений: 5536
Ratio: 7169.418
Раздал: 109.3 TB
Поблагодарили: 623655
100%
Откуда: Московская область
nnm-club.gif
smaster67
ЛС
phula
 
Стаж: 9 лет 11 мес.
Сообщений: 303
Ratio: 26.151
Поблагодарили: 2431
0.15%
latvia.gif
Дааа,такой перверсии я еще не встречал...
Б.-Б.
Олигарх+
Стаж: 9 лет 8 мес.
Сообщений: 825
Ratio: 68.548
Раздал: 49.19 TB
Поблагодарили: 1051
100%
Откуда: Владивосток
ussr.gif
Автор, то не моё дело конечно, но ты бы описание поправил. Не по-русски это "раздел". В русском языке "раздел" может быть только в книге, документе и т.п. Напиши "отделение", "зона", "корпус".
Kowasta
Стаж: 11 лет 7 мес.
Сообщений: 236
Ratio: 19.095
Поблагодарили: 114
100%
Вообще говоря, главный герой - чувак по имени Реймонд Сакс :)
Баттерфлай там, конечно, имеется, но основная линия не ее (хотя ее сцены довольно занятные).

А вообще - интересный фильм. Не совсем понятна, конечно, роль учреждения, в котором действие происходит, да и забота о местных обитателях порой поражает воображение.
Топик был перенесен из форума Фильмы в оригинале (HD) в форум Архив Видео

Причина переноса: Раздающего не было месяц или более
MAG3131
Показать сообщения:   
Начать новую тему   Ответить на тему    Торрент-трекер NNM-Club -> Архив торрентов -> Архив Видео Часовой пояс: GMT + 3
Страница 1 из 1