Классический форум-трекер
canvas not supported
Нас вместе: 4 115 108

Ип Ман: Последняя схватка / Yip Man: Jung gik yat jin / Ip Man: The Final Fight (2013) BDRip [720p]


 
 
RSS
Начать новую тему   Ответить на тему    Торрент-трекер NNM-Club -> Зарубежное кино -> Азиатское кино (HD, UHD, UHD-LQ)
Автор Сообщение
feel_1984 ®
Стаж: 7 лет 5 мес.
Сообщений: 102
Ratio: 782,869
Поблагодарили: 15042
100%
russia.gif
Ип Ман: Последняя схватка / Yip Man: Jung gik yat jin / Ip Man: The Final Fight (2013) BDRip [720p]
Год выпуска: 2013
Производство: Гонконг / National Arts Films Production, Emperor Motion Pictures, Pegasus Taihe Entertainment
Жанр: Боевик, Драма, Биография
Перевод: Двуголосый закадровый
Субтитры: Отсутствуют
Дата мировой премьеры: 22 марта 2013

Режиссер: Херман Яу
Продюсер: Альберт Ли, Син Квок Лам, Бак-Минг Вонг
Актеры: Энтони Вонг Чау-Санг, Гиллиан Чун, Джордан Чан, Эрик Цан, Марвел Чоу, Чжоу Чучу, Тимми Хунг, Цзянь Луи Ксиа, Синь Синь Сюн, Ип Чун
Описание фильма:
В послевоенном Гонконге легендарный великий мастер Ип Ман вскоре после событий, связанных с, казалось бы, простым соперничеством между различными стилями кунг-фу, оказывается поневоле втянутым в тёмный и опасный преступный мир триад. Теперь, чтобы защитить жизнь и честь, ему не остаётся ничего, кроме как сразиться в последний раз…

Продолжительность: 01:40:13
Качество видео: BDRip 720p
Видеокодек: MPEG-4 AVC/H.264
Битрейт видео: ~5406 Kb/s
Размер кадра: 1280x534
Аудио1: AC3, 192 Кбит/сек (2 ch), 48,0 КГц, 16 бит (Russian)
Аудио2: AC3, 640 Кбит/сек (6 ch), 48,0 КГц, 16 бит (Chinese-Cantonese)
Аудио3: AC3, 192 Кбит/сек (6 ch), 48,0 КГц, 16 бит (Chinese-Mandarin)
Сэмпл: Скачать
Сохранены оригинальные чаптеры как на Blu-Ray.
Общее
Уникальный идентификатор : 246419914476452662988911148236976732066 (0xB962BFCCC628CE42B0DA156C5668B7A2)
Полное имя : D:\Reliz\Yip.man.poslednaya.shvatka.2013.BDRip.720p.x264.mkv
Формат : Matroska
Версия формата : Version 4 / Version 2
Размер файла : 4,50 Гбайт
Продолжительность : 1 ч. 40 м.
Общий поток : 6428 Кбит/сек
Дата кодирования : UTC 2013-07-18 22:26:21
Программа кодирования : mkvmerge v6.3.0 ('You can't stop me!') built on Jun 28 2013 20:09:41
Библиотека кодирования : libebml v1.3.0 + libmatroska v1.4.0

Видео
Идентификатор : 1
Формат : AVC
Формат/Информация : Advanced Video Codec
Профиль формата : High@L4.1
Параметр CABAC формата : Да
Параметр ReFrames формата : 12 кадров
Идентификатор кодека : V_MPEG4/ISO/AVC
Продолжительность : 1 ч. 40 м.
Битрейт : 5406 Кбит/сек
Ширина : 1280 пикселей
Высота : 534 пикселя
Соотношение сторон : 2,40:1
Режим частоты кадров : Постоянный
Частота кадров : 24,000 кадра/сек
Цветовое пространство : YUV
Субдискретизация насыщенности : 4:2:0
Битовая глубина : 8 бит
Тип развёртки : Прогрессивная
Бит/(Пиксели*Кадры) : 0.330
Размер потока : 3,69 Гбайт (82%)
Библиотека кодирования : x264 core 129 r2245+704+36 8e61944 tMod+MixAQ [8-bit@4:2:0 X86_64]
Настройки программы : cabac=1 / ref=12 / deblock=1:-2:-2 / analyse=0x3:0x133 / me=umh / subme=11 / psy=1 / fade_compensate=0.00 / psy_rd=1.00:0.10 / mixed_ref=1 / me_range=32 / chroma_me=1 / trellis=2 / 8x8dct=1 / cqm=0 / deadzone=21,11 / fast_pskip=0 / chroma_qp_offset=-3 / threads=18 / lookahead_threads=3 / sliced_threads=0 / nr=0 / decimate=1 / interlaced=0 / bluray_compat=0 / constrained_intra=0 / fgo=0 / bframes=8 / b_pyramid=2 / b_adapt=2 / b_bias=0 / direct=3 / weightb=1 / open_gop=0 / weightp=2 / keyint=250 / keyint_min=24 / scenecut=40 / intra_refresh=0 / rc=2pass / mbtree=0 / bitrate=5406 / ratetol=1.0 / qcomp=0.70 / qpmin=0 / qpmax=69 / qpstep=4 / cplxblur=20.0 / qblur=0.5 / ip_ratio=1.40 / pb_ratio=1.30 / aq=3 / aq-strength=0.90 / aq-sensitivity=10.00 / aq-ifactor=1.00 / aq-pfactor=1.00 / aq-bfactor=1.00 / aq2=0
Язык : Chinese
Default : Да
Forced : Нет
Коэффициенты матрицы : BT.709

Аудио #1
Идентификатор : 2
Формат : AC-3
Формат/Информация : Audio Coding 3
Расширение режима : CM (complete main)
Параметр Endianness формата : Big
Идентификатор кодека : A_AC3
Продолжительность : 1 ч. 40 м.
Вид битрейта : Постоянный
Битрейт : 192 Кбит/сек
Каналы : 2 канала
Расположение каналов : Front: L R
Частота : 48,0 КГц
Битовая глубина : 16 бит
Метод сжатия : С потерями
Размер потока : 138 Мбайт (3%)
Язык : Russian
Default : Да
Forced : Нет

Аудио #2
Идентификатор : 3
Формат : AC-3
Формат/Информация : Audio Coding 3
Расширение режима : CM (complete main)
Параметр Endianness формата : Big
Идентификатор кодека : A_AC3
Продолжительность : 1 ч. 40 м.
Вид битрейта : Постоянный
Битрейт : 640 Кбит/сек
Каналы : 6 каналов
Расположение каналов : Front: L C R, Side: L R, LFE
Частота : 48,0 КГц
Битовая глубина : 16 бит
Метод сжатия : С потерями
Размер потока : 459 Мбайт (10%)
Заголовок : Cantonese
Язык : Chinese
Default : Нет
Forced : Нет

Аудио #3
Идентификатор : 4
Формат : AC-3
Формат/Информация : Audio Coding 3
Расширение режима : CM (complete main)
Параметр Endianness формата : Big
Идентификатор кодека : A_AC3
Продолжительность : 1 ч. 40 м.
Вид битрейта : Постоянный
Битрейт : 192 Кбит/сек
Каналы : 6 каналов
Расположение каналов : Front: L C R, Side: L R, LFE
Частота : 48,0 КГц
Битовая глубина : 16 бит
Метод сжатия : С потерями
Размер потока : 138 Мбайт (3%)
Заголовок : Mandarin
Язык : Chinese
Default : Нет
Forced : Нет

Меню
00:00:00.000 : en:00:00:00.000
00:09:58.625 : en:00:09:58.625
00:18:39.625 : en:00:18:39.625
00:26:00.416 : en:00:26:00.416
00:33:43.000 : en:00:33:43.000
00:42:17.541 : en:00:42:17.541
00:50:24.750 : en:00:50:24.750
00:57:55.208 : en:00:57:55.208
01:06:52.000 : en:01:06:52.000
01:14:02.833 : en:01:14:02.833
01:22:49.833 : en:01:22:49.833
01:30:49.500 : en:01:30:49.500

Скриншоты:


Все раздачи: Ип Ман: Последняя схватка на NNM-CLUB

Время раздачи: с 10:00 до 00:00 повозможности
Ip Man-Poslednyaya shvatka.2013.BDRip.720p.NNM-CLUB.mkv.torrent
 Торрент: Платиновая раздача  Зарегистрирован
 
Скачать


 Зарегистрирован:   19 Июл 2013 17:19:20
 Размер:   4,5 GB  (
 Рейтинг:   4,8 (Голосов: 68)
 Поблагодарили:   279
 Проверка:   Оформление проверено модератором 21 Июл 2013 08:56:54
Как cкачать  ·  Как раздать  ·  Правильно оформить  ·  Поднять ратио!  
azybat
Стаж: 9 лет 6 мес.
Сообщений: 547
Ratio: 26,154
Поблагодарили: 249
35.39%
Откуда: Иркутск
russia.gif
Только вот имя Великого Мастера по-английски всегда писалось Yip Man вроде, или это не панацея?
max7_nnmc
Uploader 100+
Стаж: 9 лет 6 мес.
Сообщений: 557
Ratio: 281,94
Раздал: 159,1 TB
100%
Откуда: из глубин небытия
pirates.png
Трилогия (2008, 2010, 2010) мне нравится больше, но и "последняя схватка" тоже вполне.
KuROni
Стаж: 8 лет 9 мес.
Сообщений: 242
Ratio: 1,946
100%
russia.gif
первая лучшая
Shadow-security
Стаж: 10 лет 3 мес.
Сообщений: 29
Ratio: 43,289
100%
ukraine.gif
Еле досмотрел фильм. Не ожидал, что после первых двух замечательных частей, кто-то сможет сделать такую нудятину.
AkG05
Стаж: 10 лет 5 мес.
Сообщений: 116
Ratio: 25,915
Поблагодарили: 171
100%
Откуда: ::1
confederate.gif
Shadow-security писал(а): Перейти к сообщению
Еле досмотрел фильм. Не ожидал, что после первых двух замечательных частей, кто-то сможет сделать такую нудятину.

Поддерживаю. Фильм следовало назвать не "Последняя схватка", а "Реквием" или "Последние годы".
Показать сообщения:   
Начать новую тему   Ответить на тему    Торрент-трекер NNM-Club -> Зарубежное кино -> Азиатское кино (HD, UHD, UHD-LQ) Часовой пояс: GMT + 3
Страница 1 из 1