Классический форум-трекер
canvas not supported
Нас вместе: 4 076 689

Rihanna - The Video Collection 2011-2013 (2011-2013) HDRemux [H.264,1080p]


 
 
RSS
Начать новую тему   Ответить на тему    Торрент-трекер NNM-Club -> Театр и Музыкальное видео -> Музыкальные клипы
Автор Сообщение
TigTig ®
Стаж: 8 лет 5 мес.
Сообщений: 194
Ratio: 403,276
Поблагодарили: 9285
100%
witch.png
Rihanna - The Video Collection 2011-2013 (2011-2013) HDRemux [H.264,1080p]
Год выпуска: 2011-2013
Жанр: Pop

Контейнер: m2ts
Видеокодек:AVC
Битрейт видео: ~5 429-8 973 Kbps
Размер кадра: 1920x1080p (16:9), 23.976 fps
Качество видео: HDRemux
Аудиокодек: PCM
Битрейт аудио: 48000Hz, PCM, 2ch stereo, 1 536 Kbps

Треклист:
1.Rihanna - California King Bed (2011), 00:04:41
2.Rihanna - Man Down (2011), 00:05:31
3.Rihanna - You Da One (2011), 00:03:24
4.Rihanna ft. Calvin Harris - We Found Love (2011), 00:04:31
5.Rihanna - Where Have You Been (2012), 00:04:12
6.Rihanna - Diamonds (2012), 00:04:39
7.Coldplay feat. Rihanna - Princess Of China (2012), 00:03:34
8.Rihanna ft. Mikky Ekko - Stay (2013), 00:04:06
9.Rihanna - Pour It Up (Explicit) (2013), 00:03:16
10.Rihanna - What Now (2013), 00:04:08

Дополнительно:
Lossless Audio
General
ID : 0 (0x0)
Complete name : rihanna_california_king_bed_2011_1080p.m2ts
Format : BDAV
Format/Info : Blu-ray Video
File size : 304 MiB
Duration : 4mn 41s
Overall bit rate mode : Variable
Overall bit rate : 9 069 Kbps
Maximum Overall bit rate : 48.0 Mbps

Video
ID : 4113 (0x1011)
Menu ID : 1 (0x1)
Format : AVC
Format/Info : Advanced Video Codec
Format profile : High@L4.0
Format settings, CABAC : Yes
Format settings, ReFrames : 2 frames
Format settings, GOP : M=2, N=12
Codec ID : 27
Duration : 4mn 41s
Bit rate mode : Variable
Bit rate : 7 165 Kbps
Maximum bit rate : 8 000 Kbps
Width : 1 920 pixels
Height : 1 080 pixels
Display aspect ratio : 16:9
Frame rate : 23.976 fps
Color space : YUV
Chroma subsampling : 4:2:0
Bit depth : 8 bits
Scan type : Progressive
Bits/(Pixel*Frame) : 0.144
Stream size : 240 MiB (79%)

Audio
ID : 4352 (0x1100)
Menu ID : 1 (0x1)
Format : PCM
Format settings, Endianness : Big
Format settings, Sign : Signed
Muxing mode : Blu-ray
Codec ID : 128
Duration : 4mn 41s
Bit rate mode : Constant
Bit rate : 1 536 Kbps
Channel(s) : 2 channels
Channel positions : Front: L R
Sampling rate : 48.0 KHz
Bit depth : 16 bits
Stream size : 51.5 MiB (17%)

General
ID : 1 (0x1)
Complete name : rihanna__man_down_2011_1080p.m2ts
Format : BDAV
Format/Info : Blu-ray Video
File size : 368 MiB
Duration : 5mn 31s
Overall bit rate mode : Variable
Overall bit rate : 9 335 Kbps
Maximum Overall bit rate : 35.5 Mbps

Video
ID : 4113 (0x1011)
Menu ID : 1 (0x1)
Format : AVC
Format/Info : Advanced Video Codec
Format profile : High@L4.0
Format settings, CABAC : Yes
Format settings, ReFrames : 2 frames
Format settings, GOP : M=2, N=12
Codec ID : 27
Duration : 5mn 30s
Bit rate mode : Variable
Bit rate : 7 420 Kbps
Maximum bit rate : 8 000 Kbps
Width : 1 920 pixels
Height : 1 080 pixels
Display aspect ratio : 16:9
Frame rate : 23.976 fps
Color space : YUV
Chroma subsampling : 4:2:0
Bit depth : 8 bits
Scan type : Progressive
Bits/(Pixel*Frame) : 0.149
Stream size : 292 MiB (79%)

Audio
ID : 4352 (0x1100)
Menu ID : 1 (0x1)
Format : PCM
Format settings, Endianness : Big
Format settings, Sign : Signed
Muxing mode : Blu-ray
Codec ID : 128
Duration : 5mn 30s
Bit rate mode : Constant
Bit rate : 1 536 Kbps
Channel(s) : 2 channels
Channel positions : Front: L R
Sampling rate : 48.0 KHz
Bit depth : 16 bits
Stream size : 60.6 MiB (16%)

General
ID : 0 (0x0)
Complete name : rihanna__you_da_one_2011_1080p.m2ts
Format : BDAV
Format/Info : Blu-ray Video
File size : 213 MiB
Duration : 3mn 24s
Overall bit rate mode : Variable
Overall bit rate : 8 750 Kbps
Maximum Overall bit rate : 48.0 Mbps

Video
ID : 4113 (0x1011)
Menu ID : 1 (0x1)
Format : AVC
Format/Info : Advanced Video Codec
Format profile : High@L4.0
Format settings, CABAC : Yes
Format settings, ReFrames : 2 frames
Format settings, GOP : M=2, N=12
Codec ID : 27
Duration : 3mn 24s
Bit rate mode : Variable
Bit rate : 6 859 Kbps
Maximum bit rate : 8 000 Kbps
Width : 1 920 pixels
Height : 1 080 pixels
Display aspect ratio : 16:9
Frame rate : 23.976 fps
Color space : YUV
Chroma subsampling : 4:2:0
Bit depth : 8 bits
Scan type : Progressive
Bits/(Pixel*Frame) : 0.138
Stream size : 167 MiB (78%)

Audio
ID : 4352 (0x1100)
Menu ID : 1 (0x1)
Format : PCM
Format settings, Endianness : Big
Format settings, Sign : Signed
Muxing mode : Blu-ray
Codec ID : 128
Duration : 3mn 24s
Bit rate mode : Constant
Bit rate : 1 536 Kbps
Channel(s) : 2 channels
Channel positions : Front: L R
Sampling rate : 48.0 KHz
Bit depth : 16 bits
Stream size : 37.4 MiB (18%)

General
ID : 0 (0x0)
Complete name : rihanna_ft_calvin_harris__we_found_love_2011_1080p.m2ts
Format : BDAV
Format/Info : Blu-ray Video
File size : 303 MiB
Duration : 4mn 31s
Overall bit rate mode : Variable
Overall bit rate : 9 354 Kbps
Maximum Overall bit rate : 48.0 Mbps

Video
ID : 4113 (0x1011)
Menu ID : 1 (0x1)
Format : AVC
Format/Info : Advanced Video Codec
Format profile : High@L4.0
Format settings, CABAC : Yes
Format settings, ReFrames : 2 frames
Format settings, GOP : M=2, N=12
Codec ID : 27
Duration : 4mn 31s
Bit rate mode : Variable
Bit rate : 7 439 Kbps
Maximum bit rate : 8 000 Kbps
Width : 1 920 pixels
Height : 1 080 pixels
Display aspect ratio : 16:9
Frame rate : 23.976 fps
Color space : YUV
Chroma subsampling : 4:2:0
Bit depth : 8 bits
Scan type : Progressive
Bits/(Pixel*Frame) : 0.150
Stream size : 241 MiB (80%)

Audio
ID : 4352 (0x1100)
Menu ID : 1 (0x1)
Format : PCM
Format settings, Endianness : Big
Format settings, Sign : Signed
Muxing mode : Blu-ray
Codec ID : 128
Duration : 4mn 31s
Bit rate mode : Constant
Bit rate : 1 536 Kbps
Channel(s) : 2 channels
Channel positions : Front: L R
Sampling rate : 48.0 KHz
Bit depth : 16 bits
Stream size : 49.8 MiB (16%)

General
ID : 0 (0x0)
Complete name : rihanna__where_have_you_been_2012_1080p.m2ts
Format : BDAV
Format/Info : Blu-ray Video
File size : 285 MiB
Duration : 4mn 12s
Overall bit rate mode : Variable
Overall bit rate : 9 467 Kbps
Maximum Overall bit rate : 48.0 Mbps

Video
ID : 4113 (0x1011)
Menu ID : 1 (0x1)
Format : AVC
Format/Info : Advanced Video Codec
Format profile : High@L4.0
Format settings, CABAC : Yes
Format settings, ReFrames : 2 frames
Format settings, GOP : M=2, N=12
Codec ID : 27
Duration : 4mn 12s
Bit rate mode : Variable
Bit rate : 7 547 Kbps
Maximum bit rate : 8 000 Kbps
Width : 1 920 pixels
Height : 1 080 pixels
Display aspect ratio : 16:9
Frame rate : 23.976 fps
Color space : YUV
Chroma subsampling : 4:2:0
Bit depth : 8 bits
Scan type : Progressive
Bits/(Pixel*Frame) : 0.152
Stream size : 227 MiB (80%)

Audio
ID : 4352 (0x1100)
Menu ID : 1 (0x1)
Format : PCM
Format settings, Endianness : Big
Format settings, Sign : Signed
Muxing mode : Blu-ray
Codec ID : 128
Duration : 4mn 12s
Bit rate mode : Constant
Bit rate : 1 536 Kbps
Channel(s) : 2 channels
Channel positions : Front: L R
Sampling rate : 48.0 KHz
Bit depth : 16 bits
Stream size : 46.2 MiB (16%)

General
ID : 0 (0x0)
Complete name : rihanna__diamonds_2012_1080p.m2ts
Format : BDAV
Format/Info : Blu-ray Video
File size : 308 MiB
Duration : 4mn 39s
Overall bit rate mode : Variable
Overall bit rate : 9 223 Kbps
Maximum Overall bit rate : 48.0 Mbps

Video
ID : 4113 (0x1011)
Menu ID : 1 (0x1)
Format : AVC
Format/Info : Advanced Video Codec
Format profile : High@L4.0
Format settings, CABAC : Yes
Format settings, ReFrames : 2 frames
Format settings, GOP : M=2, N=12
Codec ID : 27
Duration : 4mn 39s
Bit rate mode : Variable
Bit rate : 7 313 Kbps
Maximum bit rate : 8 000 Kbps
Width : 1 920 pixels
Height : 1 080 pixels
Display aspect ratio : 16:9
Frame rate : 23.976 fps
Color space : YUV
Chroma subsampling : 4:2:0
Bit depth : 8 bits
Scan type : Progressive
Bits/(Pixel*Frame) : 0.147
Stream size : 244 MiB (79%)

Audio
ID : 4352 (0x1100)
Menu ID : 1 (0x1)
Format : PCM
Format settings, Endianness : Big
Format settings, Sign : Signed
Muxing mode : Blu-ray
Codec ID : 128
Duration : 4mn 39s
Bit rate mode : Constant
Bit rate : 1 536 Kbps
Channel(s) : 2 channels
Channel positions : Front: L R
Sampling rate : 48.0 KHz
Bit depth : 16 bits
Stream size : 51.3 MiB (17%)

General
ID : 0 (0x0)
Complete name : coldplay_ft_rihanna__princess_of_china_2012_1080p.m2ts
Format : BDAV
Format/Info : Blu-ray Video
File size : 301 MiB
Duration : 3mn 34s
Overall bit rate mode : Variable
Overall bit rate : 11.8 Mbps
Maximum Overall bit rate : 48.0 Mbps

Video
ID : 4113 (0x1011)
Menu ID : 1 (0x1)
Format : AVC
Format/Info : Advanced Video Codec
Format profile : High@L4.0
Format settings, CABAC : Yes
Format settings, ReFrames : 2 frames
Format settings, GOP : M=2, N=12
Codec ID : 27
Duration : 3mn 34s
Bit rate mode : Variable
Bit rate : 8 973 Kbps
Maximum bit rate : 10 000 Kbps
Width : 1 920 pixels
Height : 1 080 pixels
Display aspect ratio : 16:9
Frame rate : 23.976 fps
Color space : YUV
Chroma subsampling : 4:2:0
Bit depth : 8 bits
Scan type : Progressive
Bits/(Pixel*Frame) : 0.180
Stream size : 230 MiB (76%)

Audio
ID : 4352 (0x1100)
Menu ID : 1 (0x1)
Format : PCM
Format settings, Endianness : Big
Format settings, Sign : Signed
Muxing mode : Blu-ray
Codec ID : 128
Duration : 3mn 34s
Bit rate mode : Constant
Bit rate : 2 304 Kbps
Channel(s) : 2 channels
Channel positions : Front: L R
Sampling rate : 48.0 KHz
Bit depth : 24 bits
Stream size : 59.0 MiB (20%)

General
ID : 0 (0x0)
Complete name : rihanna_ft_mikky_ekko__stay_2013_1080p.m2ts
Format : BDAV
Format/Info : Blu-ray Video
File size : 214 MiB
Duration : 4mn 6s
Overall bit rate mode : Variable
Overall bit rate : 7 262 Kbps
Maximum Overall bit rate : 48.0 Mbps

Video
ID : 4113 (0x1011)
Menu ID : 1 (0x1)
Format : AVC
Format/Info : Advanced Video Codec
Format profile : High@L4.0
Format settings, CABAC : Yes
Format settings, ReFrames : 2 frames
Codec ID : 27
Duration : 4mn 6s
Bit rate mode : Variable
Bit rate : 5 429 Kbps
Maximum bit rate : 6 000 Kbps
Width : 1 920 pixels
Height : 1 080 pixels
Display aspect ratio : 16:9
Frame rate : 23.976 fps
Color space : YUV
Chroma subsampling : 4:2:0
Bit depth : 8 bits
Scan type : Progressive
Bits/(Pixel*Frame) : 0.109
Stream size : 160 MiB (75%)

Audio
ID : 4352 (0x1100)
Menu ID : 1 (0x1)
Format : PCM
Format settings, Endianness : Big
Format settings, Sign : Signed
Muxing mode : Blu-ray
Codec ID : 128
Duration : 4mn 6s
Bit rate mode : Constant
Bit rate : 1 536 Kbps
Channel(s) : 2 channels
Channel positions : Front: L R
Sampling rate : 48.0 KHz
Bit depth : 16 bits
Stream size : 45.2 MiB (21%)

General
ID : 0 (0x0)
Complete name : Rihanna - Pour It Up (Explicit) (2013).m2ts
Format : BDAV
Format/Info : Blu-ray Video
File size : 215 MiB
Duration : 3mn 16s
Overall bit rate mode : Variable
Overall bit rate : 9 175 Kbps
Maximum Overall bit rate : 48.0 Mbps

Video
ID : 4113 (0x1011)
Menu ID : 1 (0x1)
Format : AVC
Format/Info : Advanced Video Codec
Format profile : High@L4.0
Format settings, CABAC : Yes
Format settings, ReFrames : 2 frames
Format settings, GOP : M=2, N=12
Codec ID : 27
Duration : 3mn 16s
Bit rate mode : Variable
Bit rate : 7 267 Kbps
Maximum bit rate : 8 000 Kbps
Width : 1 920 pixels
Height : 1 080 pixels
Display aspect ratio : 16:9
Frame rate : 23.976 fps
Color space : YUV
Chroma subsampling : 4:2:0
Bit depth : 8 bits
Scan type : Progressive
Bits/(Pixel*Frame) : 0.146
Stream size : 170 MiB (79%)

Audio
ID : 4352 (0x1100)
Menu ID : 1 (0x1)
Format : PCM
Format settings, Endianness : Big
Format settings, Sign : Signed
Muxing mode : Blu-ray
Codec ID : 128
Duration : 3mn 16s
Bit rate mode : Constant
Bit rate : 1 536 Kbps
Channel(s) : 2 channels
Channel positions : Front: L R
Sampling rate : 48.0 KHz
Bit depth : 16 bits
Stream size : 36.0 MiB (17%)

General
ID : 0 (0x0)
Complete name : Rihanna - What Now (2013).m2ts
Format : BDAV
Format/Info : Blu-ray Video
File size : 261 MiB
Duration : 4mn 8s
Overall bit rate mode : Variable
Overall bit rate : 8 818 Kbps
Maximum Overall bit rate : 48.0 Mbps

Video
ID : 4113 (0x1011)
Menu ID : 1 (0x1)
Format : AVC
Format/Info : Advanced Video Codec
Format profile : High@L4.0
Format settings, CABAC : Yes
Format settings, ReFrames : 2 frames
Format settings, GOP : M=2, N=12
Codec ID : 27
Duration : 4mn 8s
Bit rate mode : Variable
Bit rate : 6 924 Kbps
Maximum bit rate : 8 000 Kbps
Width : 1 920 pixels
Height : 1 080 pixels
Display aspect ratio : 16:9
Frame rate : 23.976 fps
Color space : YUV
Chroma subsampling : 4:2:0
Bit depth : 8 bits
Scan type : Progressive
Bits/(Pixel*Frame) : 0.139
Stream size : 205 MiB (79%)

Audio
ID : 4352 (0x1100)
Menu ID : 1 (0x1)
Format : PCM
Format settings, Endianness : Big
Format settings, Sign : Signed
Muxing mode : Blu-ray
Codec ID : 128
Duration : 4mn 8s
Bit rate mode : Constant
Bit rate : 1 536 Kbps
Channel(s) : 2 channels
Channel positions : Front: L R
Sampling rate : 48.0 KHz
Bit depth : 16 bits
Stream size : 45.5 MiB (17%)
Скриншоты:


Время раздачи: C 23:00 до 8:30
rihanna_the_video_collection_2011_2012_[nnm-club.ru].torrent
 Торрент: Платиновая раздача  Зарегистрирован
 
Скачать


Примагнититься
 Зарегистрирован:   25 Ноя 2013 20:29:34
 Размер:   2,71 GB  (
 Рейтинг:   4,8 (Голосов: 78)
 Поблагодарили:   175
 Проверка:   Оформление проверено модератором 25 Ноя 2013 20:43:58
Как cкачать  ·  Как раздать  ·  Правильно оформить  ·  Поднять ратио!  
Lingi
Стаж: 7 лет 7 мес.
Сообщений: 1890
Ratio: 22,439
100%
У меня нет звука!!!
TigTig ®
Стаж: 8 лет 5 мес.
Сообщений: 194
Ratio: 403,276
Поблагодарили: 9285
100%
witch.png
У Вас же было всё в порядке =) .

Кодеки и проигрыватель.
Lingi
Стаж: 7 лет 7 мес.
Сообщений: 1890
Ratio: 22,439
100%
Действительно)
Смотрю все на КМ-плеере, а там звука нет, запустила на другом и пошло)))
TigTig ®
Стаж: 8 лет 5 мес.
Сообщений: 194
Ratio: 403,276
Поблагодарили: 9285
100%
witch.png
Так и должно быть.
GOP [ru]
Стаж: 8 лет 4 мес.
Сообщений: 28
Ratio: 0,763
0.17%
russia.gif
Да уж.. Качество видео аналогичное тому, которое залито на ютуб.
Даже по кадровое сравнение не требуется, шумы видны невооруженным глазом.
В общем, никаким блюреем тут и не пахнет.
anna_star
Стаж: 6 лет 4 мес.
Сообщений: 1
Ratio: 0,05
87.5%
Супер. Спасибо
TigTig ®
Стаж: 8 лет 5 мес.
Сообщений: 194
Ratio: 403,276
Поблагодарили: 9285
100%
witch.png
Добавил:
9.Rihanna - Pour It Up (Explicit) (2013)
10.Rihanna - What Now (2013)
Пожалуйста, перекачайте.
ШмякБряк
Стаж: 8 лет 4 мес.
Сообщений: 398
Ratio: 6,303
100%
russia.gif
Клипы классные,качество плохое и на плеера нужен спец кодек.(Контейнер m2ts)
hurhru
Стаж: 6 лет 2 мес.
Сообщений: 3
Ratio: 0,36
100%
ШмякБряк писал(а): Перейти к сообщению
Клипы классные,качество плохое и на плеера нужен спец кодек.(Контейнер m2ts)

А мне понравилось качество и звук. Лучше, чем труба. Спасибо.
Саша1965
Стаж: 3 года 9 мес.
Сообщений: 50
Ratio: 3,619
11.48%
Спасибо! Отличные клипи,вот только звук на компе есть,а на телевизоре нет! Может дело в плеере,кто знает,подскажите.Заране благодарю! :клево:
Показать сообщения:   
Начать новую тему   Ответить на тему    Торрент-трекер NNM-Club -> Театр и Музыкальное видео -> Музыкальные клипы Часовой пояс: GMT + 3
Страница 1 из 1