Классический форум-трекер
canvas not supported
Нас вместе: 4 114 841

В.Олаев | Яндекс и Яндекс директ от "А до Я". Видеокурс [2012] PCRec


 
 
RSS
Начать новую тему   Ответить на тему    Торрент-трекер NNM-Club -> Обучающие видеоматериалы -> Бизнес
Автор Сообщение
wgiw ®
Uploader 100+
Стаж: 7 лет 6 мес.
Сообщений: 3066
Ratio: 250,11
Раздал: 145,4 TB
Поблагодарили: 373339
100%
ussr.gif
В.Олаев | Яндекс и Яндекс директ от "А до Я". Видеокурс [2012] PCRec
Автор (режиссер): В.Олаев, Д.Юдин, И.Козлов
Название: Яндекс и Яндекс директ от "А до Я". Видеокурс
Год выпуска: 2012
Жанр: Обучающее видео
Продолжительность: 03:57:32
Качество видео: PCRec
Видеокодек: XviD
Битрейт видео: ~1160 Кбит/сек
Размер кадра: 1280x960
Аудиокодек: MP3 2,0
Битрейт аудио: 128 Кбит/сек

Описание:
Подробный видеокурс от "А до Я" по настройке Яндекс директа! Данный курс рассказывает, как предприниматель может привлекать заинтересованных клиентов за минимальные вложения, получая прибыль с продажи своего товара или услуг.Универсальная пошаговая система построения эффективных кампаний в Яндекс Директе с минимальными вложениями. Данная система позволяет максимально быстро настроить эффективную кампанию в Яндекс директе с максимальной отдачей.
• Введение
• Обзорный тур по вкладкам Яндекса
• Почта на Яндекс
• Яндекс-деньги
• Яндекс- Mapket
• Яндекс- Словари
• Яндекс-Kapты
• Яндекс-Афиша
• Яндекс-Музыка и Яндекс-Hapoд
• Яндекс-Фотки и Яндекс-Видео
• Заключение
Урок 1. «Что такое контекстная реклама?»
• Базовая настройка Яндекс директа
• Особенности настроек
• Выбор наилучшей стратегии
• Основы написания объявления – обратная последовательность.
Урок 2. «Работа с ключевыми словами».
• Инструменты подбора ключевиков
• Выбор ключевых слов
• Разложение высокочастотных до низкочастотных запросов
• 3 Правила составления объявления с множеством ключевиков
• Операторы яндекса
• Работа с минус-словами
• Оператор «Кавычки»
• Работа с ценой клика
Урок 3. «Правила составления правильных объявлений».
• Влияние на показателя ctr на цену клика
• 2 правила настройки эффективно продающего текста
• Настройка оптимальной цены за «спецразмещение»
• Привлечение 100% внимание клиента через объявление
• Система обходных ключевиков
• Система тематических ключевиков
• Спецразмещение в первый же день за минимальную цену
• 3 Правила построения объявлений
• Составление текста для многоключевых низкочастотников.
Урок 4. «2000 кликов в день».
• Как настроить до 2000 кликов в день
• Яндекс Директ для бизнесменов
• Максимальный доход от Яндекс Директа
• Обмен долларов со скидкой
• Составления 1000 ключевиков за час
• Снижение цены кликов на 1/3 по всей рекламной компании за 5 минут.
Урок 5. «Быстрая работа с Директом».
• Оптимизация работы с тематическими площадками
• Работа с Excel.
• Как изменить всю компанию за 5 мин
• Создание подобных компаний за 1 клик.
Урок 6. «Автоматизированная работа Яндекс директа».
• Цена или автоматизация работы рекламной компании без человека.
• Оплата Яндекс директа
• Фишки сайта или как вызвать доверие у клиента
• Разложение сайта на продажные составляющие.
Урок 7. «Как создать бизнес в интернете за 3 дня».
• Что можно продавать
• Yandex Wordstat
• Поиск поставщика товара
• Поиск транспортной компании
Дополнительные уроки:
• Яндекс Директ для бизнесменов!
• Как сэкономить 300% бюджета на 1 показателе.avi
• Как сделать ctr = 12-55%.
• Как написать 100% продающий текст!.avi
• 1000 кликов горячих клиентов в день!
Яндекс-деньги. pdf
Яндекс-карты.pdf
Видео
Идентификатор : 0
Формат : xvid
Идентификатор кодека : xvid
Битрейт : 1160 Кбит/сек
Ширина : 1280 пикселей
Высота : 960 пикселей
Соотношение сторон : 4:3
Частота кадров : 25,000 кадров/сек
Бит/(Пиксели*Кадры) : 0.038
Размер потока : 28,3 Мбайт (89%)

Аудио
Идентификатор : 1
Формат : MPEG Audio
Версия формата : Version 1
Профиль формата : Layer 3
Режим : Joint stereo
Расширение режима : MS Stereo
Идентификатор кодека : 55
Идентификатор кодека/Подсказка : MP3
Вид битрейта : Постоянный
Битрейт : 128 Кбит/сек
Каналы : 2 канала
Частота : 44,1 КГц
Метод сжатия : С потерями
Размер потока : 3,12 Мбайт (10%)
Выравнивание : Соединение по промежуткам
Продолжительность промежутка : 26 мс. (0,65 видеокадр)
Библиотека кодирования : LAME3.98.4
Скриншоты:


Время раздачи: 02:00х18:00 мск до 5-ти скачавших
[NNM-Club.ru]_YAndeks Direkt ot A do YA.torrent
 Торрент: Платиновая раздача  Зарегистрирован
 
Скачать


Примагнититься
 Зарегистрирован:   27 Июл 2013 13:18:22
 Размер:   1,65 GB  (
 Рейтинг:   4,5 (Голосов: 113)
 Поблагодарили:   372
 Проверка:   Оформление проверено модератором 27 Июл 2013 17:10:32
Как cкачать  ·  Как раздать  ·  Правильно оформить  ·  Поднять ратио!  
userdds
Стаж: 7 лет 4 мес.
Сообщений: 20
Ratio: 3,39
0.79%
Как курс, авторские фишки есть?
aries_mc
Стаж: 9 лет 11 мес.
Сообщений: 251
Ratio: 4,327
11.29%
Откуда: Україна
ukraine.gif
userdds писал(а): Перейти к сообщению
Как курс, авторские фишки есть?


Есть авторские заморочки с той водой про которую многие и так знали.
В уроках по директу - звук преотвратнейший с фоном.
Автору руки надо вырвать за это.
Одним словом - очередной Цензура.
---
К релизеру - претензий нет.

_________________
Если что не комильфо - то прошу пардону!
Batyabest
Стаж: 8 лет 3 мес.
Сообщений: 6
Ratio: 29,535
36.71%
Посмотрим, что за чудо...
василий ст1
Стаж: 6 лет 9 мес.
Сообщений: 50
Ratio: 24,207
100%
Спасибо!!!Вам!!!
Показать сообщения:   
Начать новую тему   Ответить на тему    Торрент-трекер NNM-Club -> Обучающие видеоматериалы -> Бизнес Часовой пояс: GMT + 3
Страница 1 из 1