Классический форум-трекер
canvas not supported
Нас вместе: 4 079 464

VA - Военно-Морской флот России (2013) [FLAC|Lossless]<Авторская песня, Военная>


 
 
RSS
Начать новую тему   Ответить на тему    Торрент-трекер NNM-Club -> Шансон, Авторская и Военная песня -> Авторская и Военная песня (Lossless)
Автор Сообщение
sseless ®
Меломан, Реставратор
Стаж: 7 лет
Сообщений: 3542
Ratio: 1386,827
Раздал: 45,33 TB
Поблагодарили: 157193
100%
north_korea.gif
VA - Военно-Морской флот России (2013)
Год: 2013
Страна-производитель диска: Россия
Издатель (лейбл): Next Step Handmade Studio
Номер по каталогу: NS-HS/SPN-01
Жанр: Авторская песня, Военная
Продолжительность: 01:09:17

Кодек: FLAC (*.flac)
Битрейт: Lossless
Тип рипа: image+.cue
Спасибо: stepniks

Треклист:
01. Флотский марш (А.И.Иваненко)
исп. Образцовый военный оркестр почетного караула п/у А.Ф.Приходченко. Гл.дир. Б.Ф.Дылдин
02. Баллада-марш о подводниках-североморцах (Б.П.Побединский - Н.Флеров)
исп. А.Цымбал, В.Чернобыль, Краснознаменный ансамбль песни и пляски Северного флота, х/р и дир. Б.П.Побединский
03. Разбегаются волны (Б.А.Мокроусов - Л.И.Ошанин)
исп. И.И.Савчук, А.М.Куслеев, Краснознаменный им. А.В.Александрова ансамбль песни и пляски Советской Армии п/у Б.А.Александрова
04. Прощайте, скалистые горы (Е.Э.Жарковский - Н.И.Букин)
исп. Н.Кондратюк, оркестр
05. По морям, по океанам (А.Г. Новиков - В.И. Лебедев-Кумач)
исп. В.А.Бунчиков, Ансамбль песни ВР
06. Варяг (Н.П.Иванов - Радкевич)
исп. Образцовый оркестр ВМФ СССР п/у Е.Докторова, х/р В.Солодухин
07. Севастопольский вальс (К.Я.Листов - Г.Рублев)
исп. А.Розум, образцовый оркестр ВМФ СССР п/у В.Солодухина
08. Черноморская (Е.Э.Жарковский - В.А.Журавлева)
исп. В.А.Бунчик, В.А.Нечаев, оркестр п/у В.Н.Кнушевицкого
09. Матросские ночи (В.П.Соловьев-Седой - С.Б.Фогельсон)
исп. М.Л.Пахоменко, оркестр
10. Над волною голубою (К.Я.Листов - А.А.Жарков)
исп. М.В.Михайлов, оркестр п/у В.Н.Кнушевицкого
11. Шумит волна, звенит струна (Ю.М.Слоков - В.Е.Малков)
исп. В.А.Бунчик, оркестр
12. На побывку едет молодой моряк (А.П.Аверкин - В.Ф.Боков)
исп. Л.Г.Зыкина, Государственный академический рус.нар. оркестр им. Н.П.Осипова п/у В.П.Дубровского
13. Балтийский вальс (Э.А.Арро - Б.А.Брянский)
исп. Г.К.Отс, оркестр
14. Вечер на рейде (В.П.Соловьев-Седой - А.Д.Чуркин)
исп. В.А.Бунчиков, В.А.Нечаев, ансамбль песни ВР
15. Белокрылые чайки (Д.А.Прицкер - С.Б.Фогельсон)
исп. В.А.Селиванов, эстрадно-симфонический оркестр
16. Под волною (А.П. Долуханян - М.С. Лисянский)
исп. В.А.Кохно, И.Д.Кобзон, эстрадный оркестр
17. Жена моряка (Я.М.Мошарский - В.И.Янтовский)
исп. Л.Г.Зыкина, инструментальный ансамбль
18. Североморский вальс (В.П.Соловьев-Седой - С.Б.Фогельсон)
исп. А.И.Александрович, инструментальный ансамбль п/у В.А.Румянцева
19. Бушует полярное море (Е.Э.Жарковский - Д.Алтаузен)
исп. В.И.Селиванов, оркестр
20. Песня подводников (Е.Э.Жарковский - М.И.Рейтман)
исп. В.Будилин, оркестр
21. Усталая подлодка (А.Н.Пахмутова - С.Т.Гребенников, Н.Н.Добронравов)
исп. Ю.А. Гуляев, эстрадный оркестр ВР п/у Ю.В.Силантьева
22. Марш нахимовцев (В.П.Соловьев-Седой)
исп. Образцовый оркестр ВМФ СССР дир. и х/р В.Солодухин
Код: выделить все

Exact Audio Copy V0.99 prebeta 5 from 4. May 2009

EAC extraction logfile from 23. February 2013, 13:44

Various / Военно-Морской Флот

Used drive  : PLEXTOR DVDR   PX-750A   Adapter: 4  ID: 0

Read mode               : Secure
Utilize accurate stream : Yes
Defeat audio cache      : Yes
Make use of C2 pointers : No

Read offset correction                      : 102
Overread into Lead-In and Lead-Out          : No
Fill up missing offset samples with silence : Yes
Delete leading and trailing silent blocks   : No
Null samples used in CRC calculations       : Yes
Used interface                              : Installed external ASPI interface

Used output format : Internal WAV Routines
Sample format      : 44.100 Hz; 16 Bit; Stereo

TOC of the extracted CD

     Track |   Start  |  Length  | Start sector | End sector
    ---------------------------------------------------------
        1  |  0:00.00 |  4:04.45 |         0    |    18344
        2  |  4:04.45 |  4:39.27 |     18345    |    39296
        3  |  8:43.72 |  4:25.25 |     39297    |    59196
        4  | 13:09.22 |  3:06.36 |     59197    |    73182
        5  | 16:15.58 |  2:10.44 |     73183    |    82976
        6  | 18:26.27 |  2:02.55 |     82977    |    92181
        7  | 20:29.07 |  3:20.42 |     92182    |   107223
        8  | 23:49.49 |  2:17.12 |    107224    |   117510
        9  | 26:06.61 |  2:43.40 |    117511    |   129775
       10  | 28:50.26 |  3:00.51 |    129776    |   143326
       11  | 31:51.02 |  2:53.13 |    143327    |   156314
       12  | 34:44.15 |  3:03.05 |    156315    |   170044
       13  | 37:47.20 |  3:04.58 |    170045    |   183902
       14  | 40:52.03 |  5:20.34 |    183903    |   207936
       15  | 46:12.37 |  2:45.05 |    207937    |   220316
       16  | 48:57.42 |  3:27.23 |    220317    |   235864
       17  | 52:24.65 |  3:06.55 |    235865    |   249869
       18  | 55:31.45 |  2:17.38 |    249870    |   260182
       19  | 57:49.08 |  2:38.31 |    260183    |   272063
       20  | 60:27.39 |  3:06.43 |    272064    |   286056
       21  | 63:34.07 |  3:23.09 |    286057    |   301290
       22  | 66:57.16 |  2:19.38 |    301291    |   311753

Range status and errors

Selected range

     Filename M:\Various - Военно-Морской Флот.wav

     Peak level 90.4 %
     Range quality 100.0 %
     Test CRC D76BA47A
     Copy CRC D76BA47A
     Copy OK

No errors occurred

End of status report
Код: выделить все

-----------------------

DON'T MODIFY THIS FILE

-----------------------

PERFORMER: auCDtect Task Manager, ver. 1.6.0 RC1 build 1.6.0.1
Copyright (c) 2008-2010 y-soft. All rights reserved
http://y-soft.org

ANALYZER: auCDtect: CD records authenticity detector, version 0.8.2
Copyright (c) 2004 Oleg Berngardt. All rights reserved.
Copyright (c) 2004 Alexander Djourik. All rights reserved.

FILE: Various - Военно-Морской Флот.flac
  Size: 231945415 Hash: 98E79F58895C234E3605BB514CB7EF56 Accuracy: -m0
  Conclusion: CDDA 100%
  Signature: 7C340D83F6C7EE425A632C314C7CFDFF3823A99F


Код: выделить все
foobar2000 1.2.2 / Dynamic Range Meter 1.1.1
log date: 2013-02-23 13:56:22

--------------------------------------------------------------------------------
Analyzed: Various / Военно-Морской Флот
--------------------------------------------------------------------------------

DR         Peak         RMS     Duration Track
--------------------------------------------------------------------------------
DR13      -1.06 dB   -15.95 dB      4:05 01-Флотский марш
DR11      -1.06 dB   -15.81 dB      4:39 02-Баллада-марш о подводниках-североморцах
DR12      -1.05 dB   -17.29 dB      4:25 03-Разбегаются волны
DR13      -1.04 dB   -15.50 dB      3:06 04-Прощайте, скалистые горы
DR9       -2.42 dB   -15.54 dB      2:11 05-По морям, по океанам
DR13      -1.06 dB   -15.45 dB      2:03 06-Варяг
DR11      -1.07 dB   -14.19 dB      3:21 07-Севастопольский вальс
DR11      -1.05 dB   -14.07 dB      2:17 08-Черноморская
DR10      -0.97 dB   -13.71 dB      2:44 09-Матросские ночи
DR11      -1.84 dB   -17.51 dB      3:01 10-Над волною голубою
DR11      -1.05 dB   -15.63 dB      2:53 11-Шумит волна, звенит струна
DR11      -1.05 dB   -15.72 dB      3:03 12-На побывку едет молодой моряк
DR12      -1.05 dB   -16.49 dB      3:05 13-Балтийский вальс
DR11      -1.04 dB   -15.39 dB      5:20 14-Вечер на рейде
DR12      -1.04 dB   -16.41 dB      2:45 15-Белокрылые чайки
DR11      -1.06 dB   -15.56 dB      3:27 16-Под волною
DR10      -1.05 dB   -17.13 dB      3:07 17-Жена моряка
DR11      -1.05 dB   -15.63 dB      2:18 18-Североморский вальс
DR11      -1.66 dB   -16.79 dB      2:38 19-Бушует полярное море
DR11      -1.04 dB   -15.89 dB      3:07 20-Песня подводников
DR9       -1.05 dB   -12.54 dB      3:23 21-Усталая подлодка
DR12      -1.12 dB   -14.61 dB      2:20 22-Марш нахимовцев
--------------------------------------------------------------------------------

Number of tracks:  22
Official DR value: DR11

Samplerate:        44100 Hz
Channels:          2
Bits per sample:   16
Bitrate:           1411 kbps
Codec:             PCM
================================================================================

Время раздачи: (до первых 10-ти сидов)
[NNM-Club.ru]_Sbornik pesen dlya moryakov.torrent
 Торрент: Платиновая раздача  Зарегистрирован
 
Скачать


Примагнититься
 Зарегистрирован:   28 Июл 2013 09:35:55
 Размер:   230 MB  (
 Рейтинг:   4,5 (Голосов: 49)
 Поблагодарили:   167
 Проверка:   Оформление проверено модератором 28 Июл 2013 19:41:44
Как cкачать  ·  Как раздать  ·  Правильно оформить  ·  Поднять ратио!  
sseless ®
Меломан, Реставратор
Стаж: 7 лет
Сообщений: 3542
Ratio: 1386,827
Раздал: 45,33 TB
Поблагодарили: 157193
100%
north_korea.gif
SubМарина
Uploader 300+
Стаж: 9 лет
Сообщений: 703
Ratio: 2201,702
Раздал: 302,6 TB
100%
Откуда: Севастополь
ussr.gif
Спасибо Огромное!!! Шикарнейшая подборка песен!!! С Днём ВМФ всех!

_________________
woodWARD
Стаж: 9 лет 5 мес.
Сообщений: 289
Ratio: 6,571
0%
ukraine.gif
Я знаю двух моряков и оба они мягко говоря неадекваты, может просто совпадение. :(
elmim
Стаж: 7 лет 10 мес.
Сообщений: 167
Ratio: 18,13
100%
russia.gif
С Днем ВМФ! Ура товарищи!
Rock`n_Roll
 
Стаж: 9 лет
Сообщений: 1899
Ratio: 2,31
Раздал: 634 GB
Поблагодарили: 725
100%
Откуда: Москва
russia.gif
woodWARD писал(а): Перейти к сообщению
Я знаю двух моряков

А я знаю одного "адеквата", который за три года на форуме ни разу не поблагодарил релизёра, так что молчали бы в тряпочку, день дезертира в другом разделе отмечают.
ВРЕ
Стаж: 4 года 9 мес.
Сообщений: 1544
Ratio: 4,498
100%
Откуда: от верблюда
russia.gif
С Днём ВМФ ! YouTube С Праздником Друзья!

Спасибо,за сборник.

_________________
Русский не тот, кто носит русскую фамилию, а тот, кто любит Россию и считает ее своим отечеством. Антон Деникин
trofimovda
Стаж: 5 лет 2 мес.
Сообщений: 44
Ratio: 3,157
Поблагодарили: 991
100%
И "Марш аквалангистов" Высоцкого, кмк, тоже в тему был бы.

_________________
По куплету всему свету вы раздайте песню эту...
vpikul5
Стаж: 1 год 6 мес.
Сообщений: 104
Ratio: 0,429
100%
norway.gif
Ну с днем так с днем, ну а на фото зачем лепить все что только нашли в интернетах? Курица, якоря, корона, подлодка, щит и звезда - ну ёмаё, это что за винегрет? Сразу вспоминаю картинку "слава водолазам парашютистам" (не смог найти - прикольная была..)

v9o4v9a1n
Стаж: 8 лет 4 мес.
Сообщений: 687
Ratio: 2,057
100%
albania.gif
И Нептуна надо было при рисовать, как он этот винегрет на свои вилы накалывает.

_________________
В дискуссии не вступаю, на вопросы не отвечаю.
lesss
Стаж: 10 лет 5 мес.
Сообщений: 2233
Ratio: 2M
100%
С праздником меня.
А кому не нравится, к тому мы прыгнем в ластах - да запросто.
ABSS
Стаж: 12 лет 6 мес.
Сообщений: 35
Ratio: 8,147
100%
Откуда: Одесса
russia.gif
woodWARD писал(а): Перейти к сообщению
Я знаю двух моряков и оба они мягко говоря неадекваты, может просто совпадение. :(

в Цэевропе моряков уже не осталось. :D
Показать сообщения:   
Начать новую тему   Ответить на тему    Торрент-трекер NNM-Club -> Шансон, Авторская и Военная песня -> Авторская и Военная песня (Lossless) Часовой пояс: GMT + 3
Страница 1 из 1