Классический форум-трекер
canvas not supported
Нас вместе: 4 088 898

Эпидемия / Los ultimos dias (2013) HDRip [H.264]


 
 
RSS
Начать новую тему   Ответить на тему    Торрент-трекер NNM-Club -> Зарубежное кино -> Зарубежные Фильмы (HD*Rip/LQ, DVDRip, SATRip, VHSRip)
Автор Сообщение
Sедой ®
Стаж: 9 лет 4 мес.
Сообщений: 3057
Ratio: 5117,534
Поблагодарили: 643936
100%
Откуда: Донецк
Эпидемия / Los ultimos dias (2013) HDRip«Barcelona, April 15th 2013. Six weeks after the panic»
Год выпуска: 2013
Производство: Испания / A3 Media Cine
Жанр: Триллер, Приключения
Перевод: Любительский двуголосый (den904, DeadSno)
Субтитры: Отсутствуют

Дата мировой премьеры: 20 марта 2013

Режиссер: Давид Пастор, Алекс Пастор
Продюсер: Мерседес Гамеро, Альберто Марини, Педро Уриоль
Актеры: Ким Гутьеррес, Хосе Коронадо, Марта Этура, Летисия Долера, Микель Иглесиас, Иван Массаге, Пере Вентура, Луис Солер

Описание фильма:
2013 год. Таинственная эпидемия мгновенно распространилась по планете: теперь миром правит агорафобия — боязнь открытого пространства. Оставшиеся в живых люди прячутся под землей или внутри зданий.
Главный герой офисный клерк Марк. Внезапная эпидемия застала его на работе. Дома у Марка осталась беременная жена, которая должна вот вот родить. Ему нужно вернуться к ней, но как это сделать, если он не может выйти на улицу?Он начинает свой путь по подземным коммуникациям, перебираясь из подвала, в другой подвал, из одного тоннеля метро в другой тоннель. Ему остается совсем немного, он уже видит свою жену из окна соседнего дома, но перейти в него, можно только по улице. Решится ли он на этот шаг?



Продолжительность: 01:42:45
Качество видео: HDRip

Видеокодек: MPEG-4 AVC/H.264
Битрейт видео: ~2724 Kbit/s
Размер кадра: 1024 x 432
Аудиокодек: AC3, 5.1
Битрейт аудио: 448 Kbit/s
Общее
Уникальный идентификатор : 232659558992059163213816782758432946665 (0xAF0899E50968C6D6B075B0AB002339E9)
Полное имя : D:\Торренты\ФИЛЬМЫ торента\Эпидемия.2013.HDRip-AVC.mkv
Формат : Matroska
Размер файла : 2,28 Гбайт
Продолжительность : 1 ч. 42 м.
Общий поток : 3172 Кбит/сек
Дата кодирования : UTC 2013-08-02 07:58:02
Программа кодирования : mkvmerge v5.8.0 ('No Sleep / Pillow') built on Sep 2 2012 15:37:04
Библиотека кодирования : libebml v1.2.3 + libmatroska v1.3.0

Видео
Идентификатор : 1
Формат : AVC
Формат/Информация : Advanced Video Codec
Профиль формата : High@L4.1
Параметр CABAC формата : Да
Параметр ReFrames формата : 8 кадров
Идентификатор кодека : V_MPEG4/ISO/AVC
Продолжительность : 1 ч. 42 м.
Битрейт : 2724 Кбит/сек
Ширина : 1024 пикс.
Высота : 432 пикс.
Соотношение сторон : 2,35:1
Частота кадров : 24,000 кадр/сек
Цветовое пространство : YUV
Подвыборка цветности : 4:2:0
Битовая глубина : 8 бит
Тип развёртки : Прогрессивная
Бит/(Пиксели*Кадры) : 0.257
Размер потока : 1,91 Гбайт (84%)
Библиотека кодирования : x264 core 125 r2208 d9d2288
Настройки программы : cabac=1 / ref=8 / deblock=1:-1:-1 / analyse=0x3:0x133 / me=umh / subme=10 / psy=1 / psy_rd=1.00:0.10 / mixed_ref=1 / me_range=16 / chroma_me=1 / trellis=2 / 8x8dct=1 / cqm=0 / deadzone=21,11 / fast_pskip=0 / chroma_qp_offset=-3 / threads=3 / lookahead_threads=1 / sliced_threads=0 / nr=0 / decimate=1 / interlaced=0 / bluray_compat=0 / constrained_intra=0 / bframes=3 / b_pyramid=2 / b_adapt=2 / b_bias=0 / direct=3 / weightb=1 / open_gop=0 / weightp=2 / keyint=250 / keyint_min=23 / scenecut=40 / intra_refresh=0 / rc_lookahead=50 / rc=2pass / mbtree=1 / bitrate=2724 / ratetol=1.0 / qcomp=0.60 / qpmin=0 / qpmax=69 / qpstep=4 / cplxblur=20.0 / qblur=0.5 / ip_ratio=1.40 / aq=1:1.00

Аудио
Идентификатор : 2
Формат : AC-3
Формат/Информация : Audio Coding 3
Расширение режима : CM (complete main)
Идентификатор кодека : A_AC3
Продолжительность : 1 ч. 42 м.
Вид битрейта : Постоянный
Битрейт : 448 Кбит/сек
Каналы : 6 каналов
Расположение каналов : Front: L C R, Side: L R, LFE
Частота : 48,0 КГц
Битовая глубина : 16 бит
Метод сжатия : С потерями
Размер потока : 329 Мбайт (14%)

Скриншоты:

Время раздачи: 24/7 по возможности
[NNM-Club.me]_YEpidemiya.2013.HDRip-AVC.mkv.torrent
 Торрент:   Зарегистрирован
 
Зарегистрируйтесь и скачайте торрент!
11,8 KB

Примагнититься
 Зарегистрирован:   02 Авг 2013 14:39:28
 Размер:   2,28 GB  (
 Рейтинг:   4,5 (Голосов: 51)
 Поблагодарили:   274
 Проверка:   Оформление проверено модератором 02 Авг 2013 17:39:49
Как cкачать  ·  Как раздать  ·  Правильно оформить  ·  Поднять ратио!  
Loading...
_xart
Стаж: 8 лет 10 мес.
Сообщений: 80
Ratio: 6,685
100%
belarus.gif
Господи, ну прям все человечество ?! Такого в принципе быть не может.
Kaskad90
Стаж: 9 лет 7 мес.
Сообщений: 14
Ratio: 21,215
100%
Откуда: Планета Земля
pirates.png
Цитата:
Господи, ну прям все человечество ?! Такого в принципе быть не может.

Чувак, это фильм. Если бы всё снимали с учетом того, что реально или в принципе может быть - то боюсь смотреть было бы нечего...
aleksei357
 
Стаж: 12 лет 7 мес.
Сообщений: 261
Ratio: 80,971
100%
russia.gif
Сюжет, если судить по описанию - бред еще тот. С таки же успехом можно снять фильм про всеобщую депрессию, или про массовую простуду.

_________________
“All of us do not have equal talent, but all of us should have an equal opportunity to develop our talents.” John Fitzgerald Kennedy
bah1982
Стаж: 9 лет 11 мес.
Сообщений: 7
Ratio: 1,936
100%
russia.gif
фильм нормальный - на 4
Zubov2
Стаж: 8 лет 1 мес.
Сообщений: 552
Ratio: 5,96
Раздал: 6,1 TB
100%
ussr.gif
aleksei357 писал(а): Перейти к сообщению
Сюжет, если судить по описанию - бред еще тот. С таки же успехом можно снять фильм про всеобщую депрессию, или про массовую простуду.

:D
Можно еще про диарею. И название есть - "Водный мир".
RembaXXX
Стаж: 10 лет 8 мес.
Сообщений: 517
Ratio: 4,179
5.86%
Откуда: Москва
russia.gif
глупости, есть куча медикаментозных средств, чтобы без проблем преодолеть свои фобии, ну правда временно, смотреть не буду :нет:
bah_denis
Стаж: 10 лет 3 мес.
Сообщений: 548
Ratio: 14,16
100%
russia.gif
Zubov2 писал(а): Перейти к сообщению
aleksei357 писал(а): Перейти к сообщению
Сюжет, если судить по описанию - бред еще тот. С таки же успехом можно снять фильм про всеобщую депрессию, или про массовую простуду.

:D
Можно еще про диарею. И название есть - "Водный мир".


+1

А ещё с пиратами бороться пытаются - такую ахинею кроме как на халяву вряд ли кто посмотрит... :огорчение: :огорчение: :огорчение:
vovka036
Только чтение
Стаж: 9 лет 3 мес.
Сообщений: 1277
Ratio: 0,733
100%
russia.gif
Кино о Барселоне. Был там пару раз, в мае последний. Надо посмотреть, что они там с городом сделали в моё отсутствие
Art!P
Стаж: 8 лет 11 мес.
Сообщений: 307
Ratio: 44,879
100%
Рейтинги не очень.
Как фильм?

_________________
Тот кто всё время утверждает что он не дурак, вызывает подозрения по этому поводу.
mishel310
Стаж: 9 лет 2 мес.
Сообщений: 5
Ratio: 0,392
0%
russia.gif
Бредятина, смотреть не стоит
systemset
Стаж: 8 лет 2 мес.
Сообщений: 2
Ratio: 3,453
18.97%
russia.gif
Автору раздачи ясен пень, спс. Но заеал уже трэш. Люто минусую
Показать сообщения:   
Начать новую тему   Ответить на тему    Торрент-трекер NNM-Club -> Зарубежное кино -> Зарубежные Фильмы (HD*Rip/LQ, DVDRip, SATRip, VHSRip) Часовой пояс: GMT + 3
Страница 1 из 1