Классический форум-трекер
canvas not supported
Нас вместе: 4 130 273

Uchuu Senkan Yamato: Aratanaru Tabidachi / Space Battleship Yamato: The New Voyage / Космический крейсер Ямато (фильм третий) [1979, MV] DVDRip Hi10P 480p raw


 
 
RSS
Начать новую тему   Ответить на тему    Торрент-трекер NNM-Club -> Аниме с субтитрами -> Аниме (SD)
Автор Сообщение
gdfhs6t6we ®
Стаж: 9 лет 5 мес.
Сообщений: 675
Ratio: 780,298
Поблагодарили: 12512
100%
albania.gif
宇宙戦艦ヤマト 新たなる旅立ち
Uchuu Senkan Yamato: Aratanaru Tabidachi
Space Battleship Yamato: The New Voyage
Космический крейсер Ямато (фильм третий)

Жанр: Приключения, фантастика, драма
Тип: Полнометражный фильм
Продолжительность: 95 мин.
Дата премьеры / период выхода: 31.07.1979

Режиссер: Нисидзаки Ёсинобу
Автор оригинала: Нисидзаки Ёсинобу
Производство/студия:

Качество видео: DVDRip
Видео: AVC, Hi10P, 640x480, 23,976 кадра/сек, ~1983 кбит/с
Аудио: AC-3, 48 КГц, 2 ch, ~448 кбит/с Звук: японский.
Тип субтитров: русские подключаемые. Перевод: Targon

Описание: После сражения с Империей Кометы "Ямато" возвращается на Землю. К его экипажу присоединяется несколько новых членов. Деслер летит на Гамилус, чтобы отдать дань памяти родной планете, и сталкивается с флотом империи Черной Туманности, который занимается на планете добычей руды. Империя Черной Туманности собирается напасть на Искандар, и Деслер обращается за помощью к Кодаю и экипажу "Ямато", чтобы спасти королеву Старсию.
Код:

Общее
Уникальный идентификатор                 : 232365075002607308602343627333506730678 (0xAECFE2B6886AEEA99949131205708AB6)
Полное имя                               : S:\torrent\anime\Space Battleship Yamato The New Voyage Movie\Space Battleship Yamato The New Voyage Movie.mkv
Формат                                   : Matroska
Версия формата                           : Version 4 / Version 2
Размер файла                             : 1,65 Гбайт
Продолжительность                        : 1 ч. 35 м.
Общий поток                              : 2480 Кбит/сек
Дата кодирования                         : UTC 2013-05-28 12:15:16
Программа кодирования                    : mkvmerge v6.2.0 ('Promised Land') built on Apr 28 2013 12:22:01
Библиотека кодирования                   : libebml v1.3.0 + libmatroska v1.4.0

Видео
Идентификатор                            : 1
Формат                                   : AVC
Формат/Информация                        : Advanced Video Codec
Профиль формата                          : High 10@L3.0
Параметр CABAC формата                   : Да
Параметр ReFrames формата                : 4 кадра
Идентификатор кодека                     : V_MPEG4/ISO/AVC
Продолжительность                        : 1 ч. 35 м.
Битрейт                                  : 1983 Кбит/сек
Ширина                                   : 640 пикселей
Высота                                   : 480 пикселей
Соотношение сторон                       : 4:3
Режим частоты кадров                     : Постоянный
Частота кадров                           : 23,976 кадра/сек
Цветовое пространство                    : YUV
Субдискретизация насыщенности            : 4:2:0
Битовая глубина                          : 10 бит
Тип развёртки                            : Прогрессивная
Бит/(Пиксели*Кадры)                      : 0.269
Размер потока                            : 1,32 Гбайт (80%)
Библиотека кодирования                   : x264 core 125 r2200 999b753
Настройки программы                      : cabac=1 / ref=4 / deblock=1:0:0 / analyse=0x3:0x133 / me=umh / subme=7 / psy=1 / psy_rd=1.00:0.00 / mixed_ref=1 / me_range=32 / chroma_me=1 / trellis=2 / 8x8dct=1 / cqm=0 / deadzone=21,11 / fast_pskip=0 / chroma_qp_offset=-2 / threads=3 / lookahead_threads=1 / sliced_threads=0 / nr=0 / decimate=1 / interlaced=0 / bluray_compat=0 / constrained_intra=0 / bframes=6 / b_pyramid=2 / b_adapt=2 / b_bias=0 / direct=3 / weightb=1 / open_gop=0 / weightp=2 / keyint=240 / keyint_min=23 / scenecut=40 / intra_refresh=0 / rc_lookahead=40 / rc=crf / mbtree=1 / crf=16.0 / qcomp=0.60 / qpmin=10 / qpmax=51 / qpstep=4 / ip_ratio=1.40 / aq=1:1.00
Язык                                     : Японский
Default                                  : Да
Forced                                   : Нет

Аудио
Идентификатор                            : 2
Формат                                   : AC-3
Формат/Информация                        : Audio Coding 3
Расширение режима                        : CM (complete main)
Параметр Endianness формата              : Big
Идентификатор кодека                     : A_AC3
Продолжительность                        : 1 ч. 35 м.
Вид битрейта                             : Постоянный
Битрейт                                  : 448 Кбит/сек
Каналы                                   : 2 канала
Расположение каналов                     : Front: L R
Частота                                  : 48,0 КГц
Битовая глубина                          : 16 бит
Метод сжатия                             : С потерями
Задержка видео                           : 11 мс.
Размер потока                            : 306 Мбайт (18%)
Язык                                     : Японский
Default                                  : Нет
Forced                                   : Нет
#01 Космический крейсер Ямато [ТВ-1] - ТВ (26 эп.), начало цикла, 1974
#02 Космический крейсер Ямато (фильм первый) - п/ф, компиляция ТВ-сериала, 1977
#03 Космический крейсер Ямато (фильм второй) - п/ф, продолжение, 1978
#04 Космический крейсер Ямато [ТВ-2] - ТВ (26 эп.), продолжение, 1978
#05 Космический крейсер Ямато (фильм третий) - п/ф, продолжение, 1979
#06 Космический крейсер Ямато (фильм четвертый) - п/ф, продолжение, 1980
#07 Космический крейсер Ямато [ТВ-3] - ТВ (25 эп.), продолжение, 1980
#08 Космический крейсер Ямато (фильм пятый) - п/ф, продолжение, 1983
#09 Ямато 2520 - OVA (3 эп. + 2 спэшла), развитие вселенной Yamato, 1995
#10 Великий Ямато №0 - OVA (5 эп.), развитие вселенной Yamato, 2004
#11 Космический крейсер Ямато (фильм шестой) - п/ф, продолжение, 2009
#12 Космический крейсер Ямато OVA - OVA (26 эп.), ремейк, 2012
Ссылки:
Ani-DB ::: World Art
Вселенная Мацумото Лэйдзи на NNM-club
Скриншоты:


Время раздачи: По мере возможности
[NNM-Club.me]_Space Battleship Yamato The New Voyage Movie.torrent
 Торрент: Платиновая раздача  Зарегистрирован
 
Скачать


Примагнититься
 Зарегистрирован:   06 Авг 2013 23:08:12
 Размер:   1,65 GB  (
 Рейтинг:   4,2 (Голосов: 21)
 Поблагодарили:   34
 Проверка:   Оформление проверено модератором 06 Авг 2013 23:10:19
Как cкачать  ·  Как раздать  ·  Правильно оформить  ·  Поднять ратио!  
gdfhs6t6we ®
Стаж: 9 лет 5 мес.
Сообщений: 675
Ratio: 780,298
Поблагодарили: 12512
100%
albania.gif
Космический линкор Ямато (фильм четвертый) выложу завтра или уже седня вечером О нет
Показать сообщения:   
Начать новую тему   Ответить на тему    Торрент-трекер NNM-Club -> Аниме с субтитрами -> Аниме (SD) Часовой пояс: GMT + 3
Страница 1 из 1