Классический форум-трекер
canvas not supported
Нас вместе: 4 119 248

Yamato yo Eien ni / Be Forever Yamato / Космический крейсер Ямато (фильм четвертый) [1980, MV] DVDRip 288p raw


 
 
RSS
Начать новую тему   Ответить на тему    Торрент-трекер NNM-Club -> Аниме с субтитрами -> Аниме (SD)
Автор Сообщение
gdfhs6t6we ®
Стаж: 9 лет 2 мес.
Сообщений: 675
Ratio: 780,298
Поблагодарили: 12468
100%
albania.gif
ヤマトよ永遠に
Yamato yo Eien ni
Be Forever Yamato
Космический крейсер Ямато (фильм четвертый)

Жанр: Приключения, фантастика, драма
Тип: Полнометражный фильм
Продолжительность: 145 мин.
Дата премьеры / период выхода: 02.08.1980

Режиссер: Масуда Тосио
Автор оригинала: Мацумото Лэйдзи
Производство/студия:

Качество видео: DVDRip
Видео: MPEG-4, 576x288, 23,976 кадра/сек, ~333 кбит/с
Аудио: MPEG Audio, 48 КГц, 2 ch, ~113 кбит/с Звук: японский.
Тип субтитров: русские в контейнере. Перевод: Targon

Описание: Империя Черной Туманности атакует Землю и угрожает взорвать планету бомбой, размещенной на Земле, если их атакуют в ответ. Последняя надежда Земли - экипаж Ямато - летит в самое сердце империи, чтобы найти способ, как обезвредить бомбу, пока не стало слишком поздно.
Код:

Общее
Уникальный идентификатор                 : 218424574416426732298634247211184433131 (0xA4530AF7F24E3DE69ED1F136405627EB)
Полное имя                               : S:\torrent\anime\Space Battleship Yamato Be Forever Yamato Movie\Space Battleship Yamato Be Forever Yamato Movie.mkv
Формат                                   : Matroska
Версия формата                           : Version 2
Размер файла                             : 484 Мбайт
Продолжительность                        : 2 ч. 28 м.
Режим общего битрейта                    : Переменный
Общий поток                              : 455 Кбит/сек
Дата кодирования                         : UTC 2013-08-07 02:46:47
Программа кодирования                    : mkvmerge v5.8.0 ('No Sleep / Pillow') built on Sep  2 2012 15:37:04
Библиотека кодирования                   : libebml v1.2.3 + libmatroska v1.3.0

Видео
Идентификатор                            : 1
Формат                                   : MPEG-4 Visual
Профиль формата                          : Advanced Simple@L5
Параметр BVOP формата                    : Да
Параметр QPel формата                    : Нет
Параметр GMC формата                     : Без точки перехода
Параметр матрицы формата                 : Выборочная
Идентификатор кодека                     : V_MS/VFW/FOURCC / XVID
Идентификатор кодека/Подсказка           : XviD
Продолжительность                        : 2 ч. 28 м.
Битрейт                                  : 333 Кбит/сек
Ширина                                   : 576 пикселей
Высота                                   : 288 пикселей
Соотношение сторон                       : 2,000
Режим частоты кадров                     : Постоянный
Частота кадров                           : 23,976 кадра/сек
Цветовое пространство                    : YUV
Субдискретизация насыщенности            : 4:2:0
Битовая глубина                          : 8 бит
Тип развёртки                            : Прогрессивная
Метод сжатия                             : С потерями
Бит/(Пиксели*Кадры)                      : 0.084
Размер потока                            : 354 Мбайт (73%)
Заголовок                                : www.SHIZA-Project.com
Библиотека кодирования                   : XviD 1.2.0.dev47 (UTC 2006-11-01)
Язык                                     : Японский
Default                                  : Да
Forced                                   : Нет

Аудио
Идентификатор                            : 2
Формат                                   : MPEG Audio
Версия формата                           : Version 1
Профиль формата                          : Layer 3
Режим                                    : Joint stereo
Расширение режима                        : MS Stereo
Режим смешивания                         : Header stripping
Идентификатор кодека                     : A_MPEG/L3
Идентификатор кодека/Подсказка           : MP3
Продолжительность                        : 2 ч. 28 м.
Вид битрейта                             : Переменный
Битрейт                                  : 113 Кбит/сек
Номинальный битрейт                      : 128 Кбит/сек
Каналы                                   : 2 канала
Частота                                  : 48,0 КГц
Метод сжатия                             : С потерями
Размер потока                            : 120 Мбайт (25%)
Заголовок                                : JAP ORIGINAL
Библиотека кодирования                   : LAME3.97
Настройки программы                      : -m j -V 4 -q 2 -lowpass 17 --abr 128
Язык                                     : Японский
Default                                  : Да
Forced                                   : Нет

Текст
Идентификатор                            : 3
Формат                                   : ASS
Идентификатор кодека                     : S_TEXT/ASS
Идентификатор кодека/Информация          : Advanced Sub Station Alpha
Метод сжатия                             : Без потерь
Заголовок                                : Targon
Язык                                     : Русский
Default                                  : Да
Forced                                   : Нет
#01 Космический крейсер Ямато [ТВ-1] - ТВ (26 эп.), начало цикла, 1974
#02 Космический крейсер Ямато (фильм первый) - п/ф, компиляция ТВ-сериала, 1977
#03 Космический крейсер Ямато (фильм второй) - п/ф, продолжение, 1978
#04 Космический крейсер Ямато [ТВ-2] - ТВ (26 эп.), продолжение, 1978
#05 Космический крейсер Ямато (фильм третий) - п/ф, продолжение, 1979
#06 Космический крейсер Ямато (фильм четвертый) - п/ф, продолжение, 1980
#07 Космический крейсер Ямато [ТВ-3] - ТВ (25 эп.), продолжение, 1980
#08 Космический крейсер Ямато (фильм пятый) - п/ф, продолжение, 1983
#09 Ямато 2520 - OVA (3 эп. + 2 спэшла), развитие вселенной Yamato, 1995
#10 Великий Ямато №0 - OVA (5 эп.), развитие вселенной Yamato, 2004
#11 Космический крейсер Ямато (фильм шестой) - п/ф, продолжение, 2009
#12 Космический крейсер Ямато OVA - OVA (26 эп.), ремейк, 2012
Ссылки:
Ani-DB ::: World Art
Вселенная Мацумото Лэйдзи на NNM-club
Скриншоты:

Время раздачи: По мере возможности
[NNM-Club.me]_Space Battleship Yamato Be Forever Yamato Movie.torrent
 Торрент: Платиновая раздача  Зарегистрирован
 
Скачать


Примагнититься
 Зарегистрирован:   07 Авг 2013 06:04:11
 Размер:   484 MB  (
 Рейтинг:   4,2 (Голосов: 24)
 Поблагодарили:   44
 Проверка:   Оформление проверено модератором 07 Авг 2013 07:38:32
Как cкачать  ·  Как раздать  ·  Правильно оформить  ·  Поднять ратио!  
ГенАдольф
Стаж: 6 лет 6 мес.
Сообщений: 1
50%
Посмотрел с интересом, в отличии от предыдущих двух фильмов. Много мелких деталей, замута с инопланетянинами очень крутая для того времени. Рисовка качественная, взрослая, халтуры не замечено. Общий стиль картины, угнетающий, всё происходит либо ночью, либо в космосе, постоянные взрывы и смерти, земля захвачена за считанные часы, надежды нету..

В общем смотреть стоит, жемчужина среди навоза. За два захода вполне реально осилить эти два часа качественной мультипликации.
Показать сообщения:   
Начать новую тему   Ответить на тему    Торрент-трекер NNM-Club -> Аниме с субтитрами -> Аниме (SD) Часовой пояс: GMT + 3
Страница 1 из 1