Классический форум-трекер
canvas not supported
Нас вместе: 4 078 226

Касл / Castle (2012) WEB-DL [720p] (Сезон 5, серии 1-24 из 24) [ТВ3]


 
 
RSS
Начать новую тему   Ответить на тему    Торрент-трекер NNM-Club -> Архив торрентов -> Архив Сериалов и Старого многосерийного кино до 90-х
Автор Сообщение
WOLF 80 ®
Uploader 100+
Стаж: 10 лет 1 мес.
Сообщений: 480
Ratio: 3902,785
Раздал: 156,9 TB
Поблагодарили: 30319
100%
Откуда: Санкт-Петербург
russia.gif
Касл / Castle (5-й сезон, серии 1-24 (24)) (2012 - 2013) WEB-DL 720p ТВ-3
«A whole new chapter in crime solving.»
Русское название: Касл
Оригинальное название: Castle
Год выпуска: 2012 - 2013
Жанр: Детектив, Комедия, Драма

Перевод:Профессиональный (полное дублирование) - канал ТВ3 + Оригинал (английский)



Дата мировой премьеры: с 24.09.2012 по 13.05.2013
Дата российской премьеры: с 09.08.2013 по 16.08.2013

Режиссер: Роб Боумен, Джон Терлески, Брайан Спайсер

Актеры: Нэйтан Филлион, Стана Катич, Джон Уэртас, Молли С. Куинн, Шимус Девер, Сьюзэн Салливан, Тамала Джонс, Рубен Сантьяго-Хадсон, Пенни Джонсон, Ари Гросс

Роли дублировали:Сергей Набиев, Вероника Саркисова, Олег Куценко, Андрей Бархударов

Описание фильма: Знакомьтесь, Ричард Касл — успешный писатель детективного жанра, который в последней книге убил своего главного героя. Но кажется, что одному из почитателей его таланта книги понравились слегка чересчур — в городе появляется подражатель, совершающий преступления, с убийственной точностью копируя способы, которыми Касл убивал в своих произведениях. И вот наш изнывающий от скуки писатель был вызван в отдел убийств Нью-йоркской полиции, чтобы помочь найти убийцу.
Общее
Уникальный идентификатор : 205997305425969760126044490752627911567 (0x9AF9A34D4D7ECC37A4C3D65FB1652B8F)
Полное имя : D:\KASL\Castle Season 5 WEB-DL 720p TV3\01. After the Storm (После бури).mkv
Формат : Matroska
Версия формата : Version 4 / Version 2
Размер файла : 1,38 Гбайт
Продолжительность : 43 м.
Общий поток : 4567 Кбит/сек
Название фильма : 01. After the Storm (После бури)
Дата кодирования : UTC 2010-02-22 21:41:31
Программа кодирования : mkvmerge v5.8.0 ('No Sleep / Pillow') built on Sep 30 2012 10:57:14
Библиотека кодирования : libebml v1.3.0 + libmatroska v1.4.0

Видео
Идентификатор : 1
Формат : AVC
Формат/Информация : Advanced Video Codec
Профиль формата : High@L3.1
Параметр CABAC формата : Нет
Параметр ReFrames формата : 2 кадра
Идентификатор кодека : V_MPEG4/ISO/AVC
Продолжительность : 43 м.
Битрейт : 3900 Кбит/сек
Ширина : 1280 пикселей
Высота : 720 пикселей
Соотношение сторон : 16:9
Режим частоты кадров : Постоянный
Частота кадров : 23,976 кадра/сек
Цветовое пространство : YUV
Субдискретизация насыщенности : 4:2:0
Битовая глубина : 8 бит
Тип развёртки : Прогрессивная
Бит/(Пиксели*Кадры) : 0.177
Размер потока : 1,18 Гбайт (85%)
Заголовок : 01. After the Storm (После бури)
Язык : English
Default : Да
Forced : Нет
Основные цвета : BT.709
Характеристики трансфера : BT.709
Коэффициенты матрицы : BT.709

Аудио #1
Идентификатор : 2
Формат : AC-3
Формат/Информация : Audio Coding 3
Расширение режима : CM (complete main)
Параметр Endianness формата : Big
Идентификатор кодека : A_AC3
Продолжительность : 43 м.
Вид битрейта : Постоянный
Битрейт : 192 Кбит/сек
Каналы : 2 канала
Расположение каналов : Front: L R
Частота : 48,0 КГц
Битовая глубина : 16 бит
Метод сжатия : С потерями
Размер потока : 59,3 Мбайт (4%)
Заголовок : DUB TV-3
Язык : Russian
Default : Да
Forced : Да

Аудио #2
Идентификатор : 3
Формат : AC-3
Формат/Информация : Audio Coding 3
Расширение режима : CM (complete main)
Параметр Endianness формата : Big
Идентификатор кодека : A_AC3
Продолжительность : 43 м.
Вид битрейта : Постоянный
Битрейт : 384 Кбит/сек
Каналы : 6 каналов
Расположение каналов : Front: L C R, Side: L R, LFE
Частота : 48,0 КГц
Битовая глубина : 16 бит
Метод сжатия : С потерями
Размер потока : 119 Мбайт (8%)
Заголовок : Dolby Digital 5.1 @ 384 kbps
Язык : English
Default : Нет
Forced : Нет

01. After the Storm / После бури
02. Cloudy with a Chance of Murder / Облачно, возможно убийство
03. Secret's Safe with Me / Я сохраню наш секрет
04. Murder He Wrote / Он написал убийство
05. Probable Cause / Возможная причина
06. The Final Frontier / Последний рубеж
07. Swan Song / Лебединая песня
08. After Hours / После работы
09. Secret Santa / Секретный Санта
10. Significant Others / Близкие люди
11. Under the Influence / Под влиянием
12. Death Gone Crazy / Отвязная смерть
13. Recoil / Отдача
14. Reality Star Struck / Звёздная болезнь
15. Target / Цель
16. Hunt / Охота
17. Scared to Death / Напуганные до смерти
18. The Wild Rover / Разбойник
19. The Lives of Others / Жизнь других
20. The Fast and the Furriest / Быстрый и мохнатый
21. The Squab and the Quail / Голубь и перепёлка
22. Still / Замри
23. The Human Factor / Человеческий фактор
24. Watershed / Перелом

miha2154 - за звук

Продолжительность: ~00:43:00 серия
Качество видео: WEB-DL 720p
Формат: MKV
Видеокодек: H.264
Битрейт видео: ~4000 Кбит/сек
Размер кадра: 1280x720 (16:9), 23,976 fps, AVC, ~ 4 000 Kbps avg, 0.177 bit/pixel
Аудиокодек: AC3
Битрейт аудио:
аудио rus: AC-3 at 192 Kbps 2 channels, 48.0 KHz, дубляж ТВ-3
аудио eng: AC-3 at 384 Kbps 6 channels, 48.0 KHz, оригинальная дорожка
КАСЛ/CASTLE все раздачи сериала

Скриншоты:

Время Раздачи: 24/7 - круглосуточно
[NNM-Club.me]_Castle Season 5 WEB-DL 720p TV3.torrent
 Торрент: Платиновая раздача  Зарегистрирован
 
Скачать


 Зарегистрирован:   17 Авг 2013 19:18:16
 Размер:   33,5 GB  (
 Рейтинг:   4,7 (Голосов: 52)
 Поблагодарили:   183
 Проверка:   Оформление проверено модератором 17 Авг 2013 19:25:37
Как cкачать  ·  Как раздать  ·  Правильно оформить  ·  Поднять ратио!  
Prizrak7
Стаж: 7 лет 8 мес.
Сообщений: 15
Ratio: 6,646
11.84%
Супер! Наконец-то ТВ3! Спасибо!
luckar
Стаж: 6 лет 8 мес.
Сообщений: 16
Ratio: 23,589
100%
Спасибо!
nnr75
Стаж: 8 лет 2 мес.
Сообщений: 7
Ratio: 0,958
100%
В 17 серии тег прописан от 18 серии.
Kokoshka
Стаж: 10 лет 4 мес.
Сообщений: 15
Ratio: 28,322
100%
ukraine.gif
Woo-hoo, только узнал, что ТВ3 продолжили показывать Касл! Откладывал, хоть и мог глянуть в оригинале хотя бы, ждал их дубляжа, к которому так привык. Тем лучше для меня - весь сезон уже готов, можно смотреть "залпом" (я вообще люблю так делать - "забыть" о хорошем сериале на пару-тройку месяцев, а потом смотреть ВСЁ (правда, есть и обратная сторона - частенько просматривается типичная сериальная "мыльность" и бессмысленная растянутость действа)). Спасибо за раздачу. :клево:
greenfrost
Стаж: 7 лет
Сообщений: 19
Ratio: 18,759
42.86%
Огромное спасибище!
SDWASDASDASD
Стаж: 4 года 11 мес.
Сообщений: 7
Ratio: 6,244
100%
azerbaijan.gif
красота

_________________
«Мясоедение есть пережиток самого грубого варварства, и переход к вегетарианству есть самое первое и естественное последствие просвещения». (Лев Толстой)
Katyuha444
Стаж: 7 лет 7 мес.
Сообщений: 13
Ratio: 0,502
100%
Обожаю =)
OnCzar
Стаж: 4 года 4 мес.
Сообщений: 2
Ratio: 3,876
6.67%
было бы отлично если бы смог запустить на ipad
Топик был перенесен из форума Касл / Castle в форум Архив Сериалов

Причина переноса: раздающего не было 3 месяца.

Исправил релиз - напиши ЛС DriverV, дав ссылку на релиз.
Если нет ответа 24 часа - нажми на кнопку "Обратить внимание модераторов".
Показать сообщения:   
Начать новую тему   Ответить на тему    Торрент-трекер NNM-Club -> Архив торрентов -> Архив Сериалов и Старого многосерийного кино до 90-х Часовой пояс: GMT + 3
Страница 1 из 1