Классический форум-трекер
canvas not supported
Нас вместе: 4 079 545

Ginga Tetsudou Monogatari II / The Galaxy Railways: Eternal Divergence / Галактические Железные Дороги [ТВ-2] [2006, TV, 24 из 24] DVDRip 480p hs


 
 
RSS
Начать новую тему   Ответить на тему    Торрент-трекер NNM-Club -> Аниме разное -> Аниме хардсаб
Автор Сообщение
gdfhs6t6we ®
Стаж: 8 лет 5 мес.
Сообщений: 675
Ratio: 780,298
Поблагодарили: 12237
100%
albania.gif
銀河鉄道物語 〜永遠への分岐点〜
Ginga Tetsudou Monogatari II
The Galaxy Railways: Eternal Divergence
Галактические Железные Дороги [ТВ-2]


Жанр: Приключения, фантастика, драма
Тип: TV-сериал
Продолжительность: 24 эп., 25 мин.
Дата премьеры / период выхода: c 05.10.2006 по 29.03.2007

Режиссер: Томинага Цунэо
Автор оригинала: Мацумото Лэйдзи
Производство/студия:

Качество видео: DVDRip
Видео: AVC, 640x480, 23,976 кадра/сек, ~633 кбит/с
Аудио: AAC, 44,1 КГц, 2 ch, ~96 кбит/с Звук: японский.
Тип субтитров: русские подключаемые, английские хардсаб.
Перевод, правка, тайминг: POCCU9I
Тайпсеттинг, коррекция, тайминг: fedor

Описание: В будущем человечество будет рискованно стремиться к далеким пределам космоса, используя для этого технологически усовершенствованные поезда. Флот Галактических Железных Дорог транспортирует граждан Галактики от одной экзотической планеты к другой под охраной SDF - Сил Космической обороны (Space Defence Force) - элитных сил, защищающей мирный путешественников от террористов, метеоритных дождей и злокозненной инопланетной жизни...
Код:

Общее
Полное имя                               : S:\torrent\anime\Galaxy Express\The Galaxy Railways Eternal Divergence\The Galaxy Railways Eternal Divergence - 01.mp4
Формат                                   : MPEG-4
Профиль формата                          : Base Media
Идентификатор кодека                     : isom
Размер файла                             : 130 Мбайт
Продолжительность                        : 23 м.
Режим общего битрейта                    : Переменный
Общий поток                              : 768 Кбит/сек
Дата кодирования                         : UTC 2006-11-28 12:51:07
Дата пометки                             : UTC 2006-11-28 12:51:07

Видео
Идентификатор                            : 1
Формат                                   : AVC
Формат/Информация                        : Advanced Video Codec
Профиль формата                          : High@L5.1
Параметр CABAC формата                   : Да
Параметр ReFrames формата                : 10 кадров
Идентификатор кодека                     : avc1
Идентификатор кодека/Информация          : Advanced Video Coding
Продолжительность                        : 23 м.
Продолжительность оригинала              : 23 м.
Битрейт                                  : 633 Кбит/сек
Номинальный битрейт                      : 667 Кбит/сек
Максимальный битрейт                     : 2770 Кбит/сек
Ширина                                   : 640 пикселей
Высота                                   : 480 пикселей
Соотношение сторон                       : 4:3
Режим частоты кадров                     : Постоянный
Частота кадров                           : 23,976 кадра/сек
Цветовое пространство                    : YUV
Субдискретизация насыщенности            : 4:2:0
Битовая глубина                          : 8 бит
Тип развёртки                            : Прогрессивная
Бит/(Пиксели*Кадры)                      : 0.086
Размер потока                            : 107 Мбайт (82%)
Размер потока оригинала                  : 113 Мбайт (87%)
Библиотека кодирования                   : x264 core 54 svn-600M
Настройки программы                      : cabac=1 / ref=7 / deblock=1:-1:-1 / analyse=0x3:0x133 / me=umh / subme=7 / brdo=0 / mixed_ref=1 / me_range=16 / chroma_me=1 / trellis=1 / 8x8dct=1 / cqm=0 / deadzone=21,11 / chroma_qp_offset=0 / slices=2 / nr=0 / decimate=1 / mbaff=0 / bframes=3 / b_pyramid=1 / b_adapt=1 / b_bias=0 / direct=1 / wpredb=1 / bime=1 / keyint=480 / keyint_min=12 / scenecut=50 / rc=2pass / bitrate=667 / ratetol=1.0 / rceq='blurCplx^(1-qComp)' / qcomp=0.60 / qpmin=14 / qpmax=51 / qpstep=6 / cplxblur=20.0 / qblur=0.5 / ip_ratio=1.30 / pb_ratio=1.30 / zones
Язык                                     : Японский
Дата кодирования                         : UTC 2006-11-28 12:51:07
Дата пометки                             : UTC 2006-11-28 12:51:19
mdhd_Duration                            : 1419793

Аудио
Идентификатор                            : 2
Формат                                   : AAC
Формат/Информация                        : Advanced Audio Codec
Профиль формата                          : LC
Идентификатор кодека                     : 40
Продолжительность                        : 23 м.
Вид битрейта                             : Переменный
Битрейт                                  : 96,0 Кбит/сек
Максимальный битрейт                     : 123 Кбит/сек
Каналы                                   : 2 канала
Расположение каналов                     : Front: L R
Частота                                  : 44,1 КГц
Метод сжатия                             : С потерями
Размер потока                            : 16,5 Мбайт (13%)
Язык                                     : Японский
Дата кодирования                         : UTC 2006-11-28 12:51:18
Дата пометки                             : UTC 2006-11-28 12:51:19

Меню
00:00:00.000                             : Opening
00:01:32.070                             : Intro
00:02:08.940                             : Main
00:21:30.600                             : Ending
00:23:09.860                             : Preview
01. New Departure
02. The Interval of Composure and Recklessness
03. The Flower Which Blooms in Space
04. Stardust Blues
05. Within the Depths of Hell
06. Graduation
07. Blue Rose
08. Duty For Only Two Persons
09. The Way Which Continues to Tomorrow
10. The Buried Future
11. For The Sake of One's Pride
12. Wings of the Spirit
13. SDF, Absolute Death (Part I)
14. SDF, Absolute Death (Part II)
15. Moment of Happiness
16. The Uninvited Drifter
17. Departure to the Unknown
18. The Successor to the Spear
19. Misty Reminiscence
20. The End of the Journey
21. Reunion
22. The Labyrinth Named Fate
23. Beyond the Storm
24. The Far-Off Oath
#01 Галактический экспресс 999 [ТВ] - ТВ (113 эп.), адаптация манги, 1978
#02 Галактический экспресс 999 - Фильм - п/ф, адаптация манги, 1979
#03 Glass no Clair - Ginga Tetsudo 999 - к/ф, ремейк 3-го эп. оригинального сериала, 1980
#04 Ginga Tetsudou 999: Kimi wa Senshi no You ni Ikirareru ka!! - ТВ-спэшл (1 эп.), ремейк 12-13 эп. оригинального сериала, 1979
#05 Ginga Tetsudo 999: Eien no Tabibito Emeraldas - ТВ-спэшл (1 эп.), ремейк 22-го эп. оригинального сериала, 1980
#06 Ginga Tetsudo 999: Kimi wa Haha no You ni Aiseru ka!! - ТВ-спэшл (1 эп.), ремейк 51-52 эп. оригинального сериала, 1980
#07 Sayonara Ginga Tetsudou 999: Andromeda Shuuchakueki - п/ф, продолжение оригинального сериала, 1981
#08 Галактический экспресс 999: Вечная фантазия - к/ф, продолжение, 1998
#09 Kasei Ryoudan DNA Sights 999.9 - к/ф, предыстория оригинального сериала, 1998
#10 Галактические Железные Дороги [ТВ-1] - ТВ (26 эп.), продолжение оригинального сериала, 2003
#11 Галактические Железные Дороги OVA - OVA (4 эп.), продолжение, 2007
#12 Галактические Железные Дороги [ТВ-2] - ТВ (24 эп.), продолжение, 2006
#13 Ginga Tetsudou 999: Diamond Ring no Kanata e - к/ф, дополнение, 2009
Ссылки:
Ani-DB ::: World Art
Вселенная Мацумото Лэйдзи на NNM-club
Скриншоты:


Время раздачи: По мере возможности
[NNM-Club.me]_The Galaxy Railways Eternal Divergence.torrent
 Торрент: Платиновая раздача  Зарегистрирован
 
Скачать


Примагнититься
 Зарегистрирован:   09 Авг 2013 21:44:25
 Размер:   3,17 GB  (
 Рейтинг:   4,4 (Голосов: 14)
 Поблагодарили:   24
 Проверка:   Оформление проверено модератором 09 Авг 2013 22:03:03
Как cкачать  ·  Как раздать  ·  Правильно оформить  ·  Поднять ратио!  
Показать сообщения:   
Начать новую тему   Ответить на тему    Торрент-трекер NNM-Club -> Аниме разное -> Аниме хардсаб Часовой пояс: GMT + 3
Страница 1 из 1