Классический форум-трекер
canvas not supported
Нас вместе: 4 079 203

The Galaxy Railways: A Letter from the Abandoned Planet / Галактические Железные Дороги OVA [2007, OVA, 4 из 4] DVDRip 432p hs


 
 
RSS
Начать новую тему   Ответить на тему    Торрент-трекер NNM-Club -> Аниме разное -> Аниме хардсаб
Автор Сообщение
gdfhs6t6we ®
Стаж: 8 лет 5 мес.
Сообщений: 675
Ratio: 780,298
Поблагодарили: 12234
100%
albania.gif
銀河鉄道物語 〜忘れられた時の惑星〜
Ginga Tetsudou Monogatari: Wasurerareta Toki no Wakusei
The Galaxy Railways: A Letter from the Abandoned Planet
Галактические Железные Дороги OVA


Жанр: Приключения, фантастика, драма
Тип: OVA
Продолжительность: 4 эп., 30 мин.
Дата премьеры / период выхода: c 24.01.2007 по 25.04.2007

Режиссер: Оба Хидэаки
Автор оригинала: Мацумото Лэйдзи
Производство/студия:

Качество видео: DVDRip
Видео: AVC, 768x432, 23,976 кадра/сек, ~1125 кбит/с
Аудио: AAC, 48 КГц, 2 ch, ~129 кбит/с Звук: японский.
Тип субтитров: русские подключаемые, английские в контейнере.
Перевод, правка, тайминг: POCCU9I
Тайпсеттинг, коррекция, редакция: fedor
QC: der_Mond

Описание: Перед нами далекое будущее... Время, когда человечество будет рисковать и пытаться отправиться в самые далекие уголки космоса. Для путешествий они используют технологические усовершенствованные поезда, которым не нужно рельсы для передвижения. И вот собственно на таких поездах Флот Галактических Железных Дорог перевозит людей от одной планеты к другой.... Все поезда находятся под постоянной охраной Сил Космической обороны ( SDF). Основная задача SDF - это защита пассажиров от террористов, преступников инопланетных рас и метеоритных дождей....
Код:

Общее
Полное имя                               : S:\torrent\anime\Galaxy Express\Galaxy Railways OVA\Galaxy Railways OVA - 01.mp4
Формат                                   : MPEG-4
Профиль формата                          : Base Media
Идентификатор кодека                     : isom
Размер файла                             : 229 Мбайт
Продолжительность                        : 25 м.
Режим общего битрейта                    : Переменный
Общий поток                              : 1259 Кбит/сек
Дата кодирования                         : UTC 2008-02-20 22:54:41
Дата пометки                             : UTC 2008-02-20 22:54:41

Видео
Идентификатор                            : 1
Формат                                   : AVC
Формат/Информация                        : Advanced Video Codec
Профиль формата                          : High@L5.1
Параметр CABAC формата                   : Да
Параметр ReFrames формата                : 7 кадров
Идентификатор кодека                     : avc1
Идентификатор кодека/Информация          : Advanced Video Coding
Продолжительность                        : 25 м.
Продолжительность оригинала              : 25 м.
Битрейт                                  : 1125 Кбит/сек
Номинальный битрейт                      : 1375 Кбит/сек
Максимальный битрейт                     : 9704 Кбит/сек
Ширина                                   : 768 пикселей
Высота                                   : 432 пикселя
Соотношение сторон                       : 16:9
Режим частоты кадров                     : Переменный
Частота кадров                           : 19,614 кадров/сек
Частота кадров в оригинале               : 23,976 кадра/сек
Минимальная частота кадров               : 5,994 кадров/сек
Максимальная частота кадров              : 29,971 кадров/сек
Цветовое пространство                    : YUV
Субдискретизация насыщенности            : 4:2:0
Битовая глубина                          : 8 бит
Тип развёртки                            : Прогрессивная
Бит/(Пиксели*Кадры)                      : 0.173
Размер потока                            : 204 Мбайт (89%)
Размер потока оригинала                  : 204 Мбайт (89%)
Библиотека кодирования                   : x264 core 58 svn-736
Настройки программы                      : cabac=1 / ref=7 / deblock=1:-1:-1 / analyse=0x3:0x133 / me=umh / subme=7 / brdo=1 / mixed_ref=1 / me_range=16 / chroma_me=1 / trellis=1 / 8x8dct=1 / cqm=0 / deadzone=21,11 / chroma_qp_offset=0 / threads=3 / nr=0 / decimate=0 / mbaff=0 / bframes=3 / b_pyramid=1 / b_adapt=1 / b_bias=0 / direct=1 / wpredb=1 / bime=1 / keyint=480 / keyint_min=12 / scenecut=50(pre) / rc=2pass / bitrate=1375 / ratetol=1.0 / rceq='blurCplx^(1-qComp)' / qcomp=0.60 / qpmin=14 / qpmax=51 / qpstep=6 / cplxblur=20.0 / qblur=0.5 / ip_ratio=1.30 / pb_ratio=1.30 / zones=0,1986,b=1.5/24683,24788,b=1.3/24789,28944,b=0.8
Язык                                     : Японский
Дата кодирования                         : UTC 2008-02-20 22:54:28
Дата пометки                             : UTC 2008-02-20 22:54:52
mdhd_Duration                            : 1523056

Аудио
Идентификатор                            : 2
Формат                                   : AAC
Формат/Информация                        : Advanced Audio Codec
Профиль формата                          : LC
Идентификатор кодека                     : 40
Продолжительность                        : 25 м.
Вид битрейта                             : Переменный
Битрейт                                  : 129 Кбит/сек
Максимальный битрейт                     : 170 Кбит/сек
Каналы                                   : 2 канала
Расположение каналов                     : Front: L R
Частота                                  : 48,0 КГц
Метод сжатия                             : С потерями
Размер потока                            : 23,5 Мбайт (10%)
Язык                                     : Японский
Дата кодирования                         : UTC 2008-02-20 22:54:50
Дата пометки                             : UTC 2008-02-20 22:54:52

Меню
00:00:00.000                             : Prologue
00:01:22.970                             : Main
00:22:19.060                             : ED
00:24:56.180                             : Preview
#01 Галактический экспресс 999 [ТВ] - ТВ (113 эп.), адаптация манги, 1978
#02 Галактический экспресс 999 - Фильм - п/ф, адаптация манги, 1979
#03 Glass no Clair - Ginga Tetsudo 999 - к/ф, ремейк 3-го эп. оригинального сериала, 1980
#04 Ginga Tetsudou 999: Kimi wa Senshi no You ni Ikirareru ka!! - ТВ-спэшл (1 эп.), ремейк 12-13 эп. оригинального сериала, 1979
#05 Ginga Tetsudo 999: Eien no Tabibito Emeraldas - ТВ-спэшл (1 эп.), ремейк 22-го эп. оригинального сериала, 1980
#06 Ginga Tetsudo 999: Kimi wa Haha no You ni Aiseru ka!! - ТВ-спэшл (1 эп.), ремейк 51-52 эп. оригинального сериала, 1980
#07 Sayonara Ginga Tetsudou 999: Andromeda Shuuchakueki - п/ф, продолжение оригинального сериала, 1981
#08 Галактический экспресс 999: Вечная фантазия - к/ф, продолжение, 1998
#09 Kasei Ryoudan DNA Sights 999.9 - к/ф, предыстория оригинального сериала, 1998
#10 Галактические Железные Дороги [ТВ-1] - ТВ (26 эп.), продолжение оригинального сериала, 2003
#11 Галактические Железные Дороги OVA - OVA (4 эп.), продолжение, 2007
#12 Галактические Железные Дороги [ТВ-2] - ТВ (24 эп.), продолжение, 2006
#13 Ginga Tetsudou 999: Diamond Ring no Kanata e - к/ф, дополнение, 2009
Ссылки:
Ani-DB ::: World Art
Вселенная Мацумото Лэйдзи на NNM-club
Скриншоты:


Время раздачи: По мере возможности
[NNM-Club.me]_Galaxy Railways OVA.torrent
 Торрент: Платиновая раздача  Зарегистрирован
 
Скачать


Примагнититься
 Зарегистрирован:   09 Авг 2013 21:44:44
 Размер:   826 MB  (
 Рейтинг:   4,5 (Голосов: 16)
 Поблагодарили:   22
 Проверка:   Оформление проверено модератором 09 Авг 2013 22:04:01
Как cкачать  ·  Как раздать  ·  Правильно оформить  ·  Поднять ратио!  
Показать сообщения:   
Начать новую тему   Ответить на тему    Торрент-трекер NNM-Club -> Аниме разное -> Аниме хардсаб Часовой пояс: GMT + 3
Страница 1 из 1