Классический форум-трекер
canvas not supported
Нас вместе: 4 083 708
Платим за отзывы

Маленький полярный медвежонок / Der kleine Eisbar (The Little Polar Bear) (2001) DVDRip


 
 
RSS
Начать новую тему   Ответить на тему    Торрент-трекер NNM-Club -> Мультфильмы -> Зарубежные Мультфильмы для детей
Автор Сообщение
denver7979 ®
Зам. Куратора Детского.
Модератор Видео.
RG Всё лучшее - детям!
 
Стаж: 9 лет
Сообщений: 7822
Ratio: 515,705
Раздал: 35,48 TB
Поблагодарили: 318339
100%
Откуда: Земля
ussr.gif
Маленький полярный медвежонок / Der kleine Eisbar (The Little Polar Bear) (2001) DVDRip
Год выпуска: 2001
Жанр: Рисованная анимация, Детский

Режиссер: Пиэт Де Рикер, Тило Роткирч
Персонажи: Mijail Verona, Максимилиан Артахо, Йохен Буссе, Мике Крюгер, Ингольф Люк, Ванесса Петруо, Жанетт Бидерманн, Дирк Бах, Сандро Блумел

Описание фильма:
Белый медвежонок по имени Ларс, живет на северном полюсе среди бесконечного льда и снегов. Полярный закон гласит: каждый держится своей стаи и общается только с сородичами. Но вот Ларс встречает компанейского весельчака Робби, с которым можно прекрасно провести время.

Есть лишь одна проблема: Робби — тюлень, а, как известно, медведям с тюленями дружить не положено. И тогда Ларс и Робби решают, что они больше не будут соблюдать строгие полярные законы и станут друзьями несмотря ни на что!

Их дружба полностью изменила отношений между тюленями и медведями, которые теперь стали отлично ладить друг с другом. Но возникает новая напасть: в окрестностях появляется громадный, прожорливый, металлический «монстр», поедающий всю рыбу. Чем будут питаться местные жители?

Чтобы спасти свою семью и друзей, малыш Ларс отправляется в далёкое путешествие, где его ждут потрясающие приключения и новые друзья!

Перевод: Многоголосый закадровый, профессиональный
Вид субтитров: Отсутствуют


Дата мировой премьеры: 4 октября 2001

Продолжительность: 01:14:00
Качество видео: DVDRip

Видео: xvid, 640x480 (4:3), 25.000 fps, 1 191 Kbps (0.155 bit/pixel)
Аудио: MP3, 48.0 KHz, 2 ch, 128 Kbps, CBR
Видео
Идентификатор : 0
Формат : xvid
Идентификатор кодека : xvid
Продолжительность : 1 ч. 14 м.
Битрейт : 1191 Кбит/сек
Ширина : 640 пикселей
Высота : 480 пикселей
Соотношение сторон : 4:3
Частота кадров : 25,000 кадров/сек
Бит/(Пиксели*Кадры) : 0.155
Размер потока : 632 Мбайт (89%)

Аудио
Идентификатор : 1
Формат : MPEG Audio
Версия формата : Version 1
Профиль формата : Layer 3
Режим : Joint stereo
Расширение режима : MS Stereo
Идентификатор кодека : 55
Идентификатор кодека/Подсказка : MP3
Продолжительность : 1 ч. 14 м.
Вид битрейта : Постоянный
Битрейт : 128 Кбит/сек
Каналы : 2 канала
Частота : 48,0 КГц
Метод сжатия : С потерями
Размер потока : 67,9 Мбайт (10%)
Выравнивание : Соединение по промежуткам
Продолжительность промежутка : 24 мс. (0,60 видеокадр)
Скриншоты:




Маленький полярный медвежонок 2:Таинственный остров (2005) DVDRip

Время раздачи: с 11:00 до 01:00
[NNM-Club.me]_Little Polar Bear.avi.torrent
 Торрент: Платиновая раздача  Зарегистрирован
 
Скачать


Примагнититься
 Зарегистрирован:   09 Авг 2013 21:47:36
 Размер:   706 MB  (
 Рейтинг:   4,8 (Голосов: 34)
 Поблагодарили:   173
 Проверка:   Оформление проверено модератором 09 Авг 2013 21:50:32
Как cкачать  ·  Как раздать  ·  Правильно оформить  ·  Поднять ратио!  
Loading...
aquasoft
Стаж: 8 лет 11 мес.
Сообщений: 8
Ratio: 5,12
0%
Хороший добрый мультик.
диарх
Стаж: 8 лет 9 мес.
Сообщений: 142
Ratio: 14,211
68.5%
russia.gif
спасибоооо!
Показать сообщения:   
Начать новую тему   Ответить на тему    Торрент-трекер NNM-Club -> Мультфильмы -> Зарубежные Мультфильмы для детей Часовой пояс: GMT + 3
Страница 1 из 1