Классический форум-трекер
canvas not supported
Нас вместе: 4 083 672
Платим за отзывы

Маленький полярный медвежонок 2: Таинственный остров / Der kleine Eisbar 2 - Die geheimnisvolle Insel (The Little Polar Bear 2: The Mysterious Island ) (2005) DVDRip


 
 
RSS
Начать новую тему   Ответить на тему    Торрент-трекер NNM-Club -> Мультфильмы -> Зарубежные Мультфильмы для детей
Автор Сообщение
denver7979 ®
Зам. Куратора Детского.
Модератор Видео.
RG Всё лучшее - детям!
 
Стаж: 9 лет
Сообщений: 7816
Ratio: 514,093
Раздал: 35,38 TB
Поблагодарили: 318018
100%
Откуда: Земля
ussr.gif
Маленький полярный медвежонок 2: Таинственный остров / Der kleine Eisbar 2 - Die geheimnisvolle Insel (The Little Polar Bear 2: The Mysterious Island ) (2005) DVDRip
Год выпуска: 2005
Жанр: Рисованная анимация, Детский

Перевод: Одноголосый закадровый, профессиональный
Вид субтитров: Отсутствуют

Режиссер: Пиэт Де Рикер, Тило Роткирч
Персонажи: Максимилиан Артахо, Селин Вогт, Леандер Вульф, Анке Энгельке, Дирк Бах, Joy Gruttmann, Атце Шрёдер, Оливер Калкофе, Бастиан Пастевка, Ральф Шмитц

Описание фильма:
Ларс — маленький белый медвежонок, который живёт с родителями на Северном полюсе. Как все дети он очень любопытен. Излишняя любознательность приводит его с друзьями в вагон поезда, с которого начнётся их путешествие к новым приключениям и испытаниям на таинственные Галапагосские Острова.


Дата мировой премьеры: 29 сентября 2005

Продолжительность: 01:17:00
Качество видео: DVDRip

Видео: MPEG4, DivX 5, 720x540 (4:3), 25.000 fps, 1 620 Kbps (0.167 bit/pixel)
Аудио: MP3, 48.0 KHz, 2 ch, 128 Kbps, CBR
Видео
Идентификатор : 0
Формат : MPEG-4 Visual
Профиль формата : Advanced Simple@L5
Параметр BVOP формата : 2
Параметр QPel формата : Нет
Параметр GMC формата : Без точки перехода
Параметр матрицы формата : Default (H.263)
Режим смешивания : Сжатый битовый поток
Идентификатор кодека : DX50
Идентификатор кодека/Подсказка : DivX 5
Продолжительность : 1 ч. 17 м.
Битрейт : 1620 Кбит/сек
Ширина : 720 пикселей
Высота : 540 пикселей
Соотношение сторон : 4:3
Частота кадров : 25,000 кадров/сек
Цветовое пространство : YUV
Субдискретизация насыщенности : 4:2:0
Битовая глубина : 8 бит
Тип развёртки : Прогрессивная
Метод сжатия : С потерями
Бит/(Пиксели*Кадры) : 0.167
Размер потока : 898 Мбайт (92%)
Библиотека кодирования : XviD 1.2.1 (UTC 2008-12-04)

Аудио
Идентификатор : 1
Формат : MPEG Audio
Версия формата : Version 1
Профиль формата : Layer 3
Режим : Joint stereo
Расширение режима : MS Stereo
Идентификатор кодека : 55
Идентификатор кодека/Подсказка : MP3
Продолжительность : 1 ч. 17 м.
Вид битрейта : Постоянный
Битрейт : 128 Кбит/сек
Каналы : 2 канала
Частота : 48,0 КГц
Метод сжатия : С потерями
Размер потока : 70,9 Мбайт (7%)
Выравнивание : Соединение по промежуткам
Продолжительность промежутка : 24 мс. (0,60 видеокадр)
Время предзагрузки промежутка : 24 мс.
Библиотека кодирования : LAME3.98.4
Скриншоты:




Маленький полярный медвежонок / Der kleine Eisbar (The Little Polar Bear) (2001) DVDRip

Время раздачи: с 11:00 до 01:00
[NNM-Club.me]_The Little Polar Bear 2.2005.DVDRip.DivX.avi.torrent
 Торрент: Платиновая раздача  Зарегистрирован
 
Скачать


Примагнититься
 Зарегистрирован:   11 Авг 2013 17:51:58
 Размер:   976 MB  (
 Рейтинг:   4,8 (Голосов: 24)
 Поблагодарили:   117
 Проверка:   Оформление проверено модератором 11 Авг 2013 17:55:00
Как cкачать  ·  Как раздать  ·  Правильно оформить  ·  Поднять ратио!  
Loading...
Показать сообщения:   
Начать новую тему   Ответить на тему    Торрент-трекер NNM-Club -> Мультфильмы -> Зарубежные Мультфильмы для детей Часовой пояс: GMT + 3
Страница 1 из 1