Классический форум-трекер
canvas not supported
Нас вместе: 4 103 013

Mobile Suit Gundam MS IGLOO: The Hidden One-Year War / ГАНДАМ:Скрытая Однолетняя война [OVA, 2004, 3] DVDRip 480p raw


 
 
RSS
Начать новую тему   Ответить на тему    Торрент-трекер NNM-Club -> Аниме с субтитрами -> Аниме (SD)
Автор Сообщение
EP ®
Стаж: 12 лет 10 мес.
Сообщений: 1205
Ratio: 2,805
Поблагодарили: 369
62.48%
機動戦士ガンダム MS IGLOO: 1年戦争秘録
Kidou Senshi Gundam MS IGLOO: 1-nen Sensou Hiroku
Mobile Suit Gundam MS IGLOO: The Hidden One-Year War
Мобильный воин ГАНДАМ: Скрытая Однолетняя война

Жанр: приключения, фантастика, меха
Тип: OVA
Продолжительность: 3 эп., 27 мин.
Выпуск: c 19.07.2004 по 03.11.2004
Студия: Sunrise
Режиссер: Иманиси Такаси
Автор оригинала: Томино Ёсиюки
Ссылки: World-Art, Ani-DB, MAL, ANN
Описание:

Лейтенант Оливер Мэй на корабле Йотунхейм, в составе подразделения 603-его дивизиона снабжения, продолжает тестирование новейшего вооружения. Конечной целью этих тестов является поставка данного вооружения силам Зеона для борьбы с Федерацией.
По завершении каждого теста, в историю Годичной войны добавляется новая глава, повествующая о испытаниях выпавших на долю пилотов-испытателей и их машин.
© @Boris@
Релиз|Энкод: gg
Качество видео: DVDRip
Видео: h.264, анаморф 704x480 —› 853x480, 29.970 fps, 1302 kbps
Аудио: AC3, 2 ch, 48 kHz, 448 kbps | Звук: Японский
Субтитры: русские от Dan | Хардсаб: отсутствует
Код:
Дата кодирования                         : UTC 2006-01-19 00:55:26
Программа кодирования                    : mkvmerge v1.6.5 ('Watcher Of The Skies') built on Dec  7 2005 18:53:53
Библиотека кодирования                   : libebml v0.7.6 + libmatroska v0.8.0
Attachment                               : Yes / Yes / Yes / Yes / Yes / Yes / Yes / Yes / Yes / Yes / Yes / Yes / Yes / Yes / Yes / Yes / Yes / Yes / Yes / Yes / Yes / Yes / Yes / Yes / Yes / Yes

Видео
Идентификатор                            : 1
Формат                                   : AVC
Формат/Информация                        : Advanced Video Codec
Профиль формата                          : High@L5.1
Параметр CABAC формата                   : Да
Параметр ReFrames формата                : 16 кадров
Идентификатор кодека                     : V_MPEG4/ISO/AVC
Продолжительность                        : 27 м.
Битрейт                                  : 1301 Кбит/сек
Ширина                                   : 704 пикселя
Высота                                   : 480 пикселей
Соотношение сторон                       : 16:9
Соотношение сторон в оригинале           : 3:2
Режим частоты кадров                     : Постоянный
Частота кадров                           : 14,985 кадров/сек
Стандарт вещания                         : NTSC
Цветовое пространство                    : YUV
Субдискретизация насыщенности            : 4:2:0
Битовая глубина                          : 8 бит
Тип развёртки                            : Прогрессивная
Бит/(Пиксели*Кадры)                      : 0.257
Размер потока                            : 253 Мбайт (72%)
Заголовок                                : MS IGLOO - 01 [H264]
Библиотека кодирования                   : x264 core 43 svn-394M
Настройки программы                      : cabac=1 / ref=16 / deblock=1:-2:-2 / analyse=0x3:0x133 / me=umh / subme=7 / brdo=1 / mixed_ref=1 / me_range=16 / chroma_me=1 / trellis=1 / 8x8dct=1 / cqm=0 / chroma_qp_offset=0 / slices=2 / bframes=3 / b_pyramid=1 / b_adapt=1 / b_bias=0 / direct=2 / wpredb=1 / bime=1 / keyint=250 / keyint_min=25 / scenecut=40 / pass=2 / bitrate=1301 / ratetol=1.0 / rceq='blurCplx^(1-qComp)' / qcomp=0.60 / qpmin=10 / qpmax=51 / qpstep=4 / cplxblur=20.0 / qblur=0.5 / ip_ratio=1.40 / pb_ratio=1.30
Язык                                     : Japanese
Default                                  : Да
Forced                                   : Нет

Аудио
Идентификатор                            : 2
Формат                                   : AC-3
Формат/Информация                        : Audio Coding 3
Расширение режима                        : CM (complete main)
Параметр Endianness формата              : Big
Идентификатор кодека                     : A_AC3
Продолжительность                        : 27 м.
Вид битрейта                             : Постоянный
Битрейт                                  : 448 Кбит/сек
Каналы                                   : 6 каналов
Расположение каналов                     : Front: L C R, Side: L R, LFE
Частота                                  : 48,0 КГц
Битовая глубина                          : 16 бит
Метод сжатия                             : С потерями
Размер потока                            : 89,7 Мбайт (26%)
Заголовок                                : Japanese Audio [5.1 AC3]
Язык                                     : Japanese
Default                                  : Да
Forced                                   : Нет

Текст
Идентификатор                            : 3
Формат                                   : ASS
Идентификатор кодека                     : S_TEXT/ASS
Идентификатор кодека/Информация          : Advanced Sub Station Alpha
Метод сжатия                             : Без потерь
Заголовок                                : English Subtitles (ASS)
Язык                                     : English
Default                                  : Да
Forced                                   : Нет
01. The Serpent That Vanished At Loum
02. The Howl That Stained The Setting Sun
03. The Rapid Illusion Above The Orbit
Вселенная Gundam

Скриншоты:



Время раздачи: круглосуточно
Реставрация от: vados loki
Gundam MS IGLOO.torrent
 Торрент: Платиновая раздача  Зарегистрирован
 
Скачать


 Зарегистрирован:   20 Фев 2008 22:10:09
 Размер:   1,03 GB  (
 Рейтинг:   4,7 (Голосов: 13)
 Поблагодарили:   25
 Проверка:   Оформление проверено модератором 20 Фев 2008 22:12:53
Как cкачать  ·  Как раздать  ·  Правильно оформить  ·  Поднять ратио!  
Показать сообщения:   
Начать новую тему   Ответить на тему    Торрент-трекер NNM-Club -> Аниме с субтитрами -> Аниме (SD) Часовой пояс: GMT + 3
Страница 1 из 1