Классический форум-трекер
canvas not supported
Нас вместе: 4 079 131

Касл / Castle (2012) WEB-DLRip (Сезон 5, серии 1-24 из 24) [ТВ3]


 
 
RSS
Начать новую тему   Ответить на тему    Торрент-трекер NNM-Club -> Зарубежные сериалы -> Касл / Castle
Автор Сообщение
WOLF 80 ®
Uploader 100+
Стаж: 10 лет 2 мес.
Сообщений: 480
Ratio: 3902,785
Раздал: 156,9 TB
Поблагодарили: 30370
100%
Откуда: Санкт-Петербург
russia.gif
Касл / Castle (5-й сезон, серии 1-24 (24)) (2012 - 2013) WEB-DLRip ТВ-3
«A whole new chapter in crime solving.»
Русское название: Касл
Оригинальное название: Castle
Год выпуска: 2012 - 2013
Жанр: Детектив, Комедия, Драма

Перевод:Профессиональный (полное дублирование) - канал ТВ3 + Оригинал (английский)



Дата мировой премьеры: с 24.09.2012 по 13.05.2013
Дата российской премьеры: с 09.08.2013 по 16.08.2013

Режиссер: Роб Боумен, Джон Терлески, Брайан Спайсер

Актеры: Нэйтан Филлион, Стана Катич, Джон Уэртас, Молли С. Куинн, Шимус Девер, Сьюзэн Салливан, Тамала Джонс, Рубен Сантьяго-Хадсон, Пенни Джонсон, Ари Гросс

Роли дублировали:Сергей Набиев, Вероника Саркисова, Олег Куценко, Андрей Бархударов

Описание фильма: Знакомьтесь, Ричард Касл — успешный писатель детективного жанра, который в последней книге убил своего главного героя. Но кажется, что одному из почитателей его таланта книги понравились слегка чересчур — в городе появляется подражатель, совершающий преступления, с убийственной точностью копируя способы, которыми Касл убивал в своих произведениях. И вот наш изнывающий от скуки писатель был вызван в отдел убийств Нью-йоркской полиции, чтобы помочь найти убийцу.
Общее
Полное имя : D:\KASL\Castle Season 5 WEB-DLRip TV3\01. After the Storm (После бури).avi
Формат : AVI
Формат/Информация : Audio Video Interleave
Размер файла : 606 Мбайт
Продолжительность : 43 м.
Общий поток : 1959 Кбит/сек
Программа кодирования : VirtualDubMod 1.5.10.2 (build 2540/release)
Библиотека кодирования : VirtualDubMod build 2540/release

Видео
Идентификатор : 0
Формат : MPEG-4 Visual
Профиль формата : Simple@L1
Параметр BVOP формата : Нет
Параметр QPel формата : Нет
Параметр GMC формата : Без точки перехода
Параметр матрицы формата : Default (H.263)
Идентификатор кодека : DX50
Идентификатор кодека/Подсказка : DivX 5
Продолжительность : 43 м.
Битрейт : 1369 Кбит/сек
Ширина : 720 пикселей
Высота : 400 пикселей
Соотношение сторон : 16:9
Частота кадров : 23,976 кадра/сек
Цветовое пространство : YUV
Субдискретизация насыщенности : 4:2:0
Битовая глубина : 8 бит
Тип развёртки : Чересстрочная
Порядок развёртки : Верхнее поле первое
Метод сжатия : С потерями
Бит/(Пиксели*Кадры) : 0.198
Размер потока : 423 Мбайт (70%)
Библиотека кодирования : Lavc51.44.0

Аудио #1
Идентификатор : 1
Формат : AC-3
Формат/Информация : Audio Coding 3
Расширение режима : CM (complete main)
Параметр Endianness формата : Big
Идентификатор кодека : 2000
Продолжительность : 43 м.
Вид битрейта : Постоянный
Битрейт : 192 Кбит/сек
Каналы : 2 канала
Расположение каналов : Front: L R
Частота : 48,0 КГц
Битовая глубина : 16 бит
Метод сжатия : С потерями
Размер потока : 59,3 Мбайт (10%)
Выравнивание : Разделение по промежуткам
Продолжительность промежутка : 42 мс. (1,00 видеокадр)
Время предзагрузки промежутка : 500 мс.

Аудио #2
Идентификатор : 2
Формат : AC-3
Формат/Информация : Audio Coding 3
Расширение режима : CM (complete main)
Параметр Endianness формата : Big
Идентификатор кодека : 2000
Продолжительность : 43 м.
Вид битрейта : Постоянный
Битрейт : 384 Кбит/сек
Каналы : 6 каналов
Расположение каналов : Front: L C R, Side: L R, LFE
Частота : 48,0 КГц
Битовая глубина : 16 бит
Метод сжатия : С потерями
Размер потока : 119 Мбайт (20%)
Выравнивание : Разделение по промежуткам
Продолжительность промежутка : 42 мс. (1,00 видеокадр)
Время предзагрузки промежутка : 500 мс.

01. After the Storm / После бури
02. Cloudy with a Chance of Murder / Облачно, возможно убийство
03. Secret's Safe with Me / Я сохраню наш секрет
04. Murder He Wrote / Он написал убийство
05. Probable Cause / Возможная причина
06. The Final Frontier / Последний рубеж
07. Swan Song / Лебединая песня
08. After Hours / После работы
09. Secret Santa / Секретный Санта
10. Significant Others / Близкие люди
11. Under the Influence / Под влиянием
12. Death Gone Crazy / Отвязная смерть
13. Recoil / Отдача
14. Reality Star Struck / Звёздная болезнь
15. Target / Цель
16. Hunt / Охота
17. Scared to Death / Напуганные до смерти
18. The Wild Rover / Разбойник
19. The Lives of Others / Жизнь других
20. The Fast and the Furriest / Быстрый и мохнатый
21. The Squab and the Quail / Голубь и перепёлка
22. Still / Замри
23. The Human Factor / Человеческий фактор
24. Watershed / Перелом

miha2154 - за звук

Продолжительность: ~00:43:00 серия
Качество видео: WEB-DLRip
Формат: Avi
Видеокодек: DivX 5
Битрейт видео: ~1400 Кбит/сек
Размер кадра: 7200x400 (16:9), 23,976 fps
Аудиокодек: AC3
Битрейт аудио:
аудио rus: AC-3 at 192 Kbps 2 channels, 48.0 KHz, дубляж ТВ-3
аудио eng: AC-3 at 384 Kbps 6 channels, 48.0 KHz, оригинальная дорожка
КАСЛ/CASTLE все раздачи сериала

Скриншоты:

Время Раздачи: 24/7 - круглосуточно
[NNM-Club.me]_Castle Season 5 WEB-DLRip TV3.torrent
 Торрент: Платиновая раздача  Зарегистрирован
 
Скачать


Примагнититься
 Зарегистрирован:   17 Авг 2013 19:22:56
 Размер:   15,4 GB  (
 Рейтинг:   4 (Голосов: 57)
 Поблагодарили:   191
 Проверка:   Оформление проверено модератором 17 Авг 2013 19:25:21
Как cкачать  ·  Как раздать  ·  Правильно оформить  ·  Поднять ратио!  
Загрузка...
solaris_mk
Стаж: 10 лет 5 мес.
Сообщений: 10
Ratio: 11,6
23.62%
Откуда: Москва
russia.gif
спасибо)
право12
Стаж: 6 лет 11 мес.
Сообщений: 162
Ratio: 12,235
0%
На ТВ 3 начали показ с первого сезона по 8 серий в неделю. К сентябрю ждем дублированный 6 сезон.
право12
Стаж: 6 лет 11 мес.
Сообщений: 162
Ratio: 12,235
0%
По ТВ-3 пошел 6 сезон.
Добрые люди, залейте пожалуйста!!!
Катруся2014
Стаж: 5 лет 8 мес.
Сообщений: 1
Ratio: 4,107
100%
скажите, где найти 1-й сезон?
Draggy90
Стаж: 6 лет 2 мес.
Сообщений: 50
Ratio: 16,06
100%
Откуда: Крым,Феодосия
russia.gif
Катруся2014 писал(а): Перейти к сообщению
скажите, где найти 1-й сезон?


http://nnmclub.to/forum/tracker.php?f=768&nm=касл
Показать сообщения:   
Начать новую тему   Ответить на тему    Торрент-трекер NNM-Club -> Зарубежные сериалы -> Касл / Castle Часовой пояс: GMT + 3
Страница 1 из 1