Классический форум-трекер
canvas not supported
Нас вместе: 4 079 113

Берегись автомобиля (1966) HDTVRip [576p] iPad


 
 
RSS
Начать новую тему   Ответить на тему    Торрент-трекер NNM-Club -> Аудио и Видео -> Отечественное видео для устройств Apple
Автор Сообщение
gekka ®
RG Apple
 
Стаж: 12 лет 8 мес.
Сообщений: 2123
Ratio: 96,238
Поблагодарили: 131269
100%
Откуда: Москва, Дорогомилово
ussr.gif
Берегись автомобиля (1966) HDTVRip [576p] iPad

Русское название: Берегись автомобиля
Оригинальное название: Берегись автомобиля
Год выпуска: 1966
Производство: СССР / © Мосфильм
Жанр: мелодрама, комедия, криминал

Субтитры: отсутствует
Навигация: отсутствует

Режиссёр: Эльдар Рязанов
В ролях: Иннокентий Смоктуновский, Олег Ефремов, Георгий Жжёнов, Ольга Аросева, Любовь Добржанская, Андрей Миронов, Анатолий Папанов, Евгений Евстигнеев, Любовь Соколова, Вячеслав Невинный , Готлиб Ронинсон, Донатас Банионис, Галина Волчек

Описание: Эта удивительная история вполне может считаться фантастической. Скромный и застенчивый страховой агент, актер самодеятельного театра Юрий Деточкин оказывается непримиримым борцом за справедливость.

Правда, для правосудия, представляемого актером того же театра, а в миру — следователем Подберезовиковым, этот Робин Гуд представляется опасным, хитроумным, изобретательным и неуловимым преступником…



Дата мировой премьеры: 3 февраля 1967
Дата Российской премьеры: -
Рейтинг MPAA -0+

Продолжительность: 01:27:09
Качество видео: HDTVRip
Видеокодек: MPEG-4 AVC/H.264
Битрейт видео: ~ 2 976 kbps
Размер кадра: 1024x576
Аудио:
* AAC 2.0 132 kbps - Русский
Код:

General
Complete name                            : D:\x264\x264\out\Beregis avtomobilya.1966 (SD).m4v
Format                                   : MPEG-4
Codec ID                                 : M4V
File size                                : 1.90 GiB
Duration                                 : 1h 27mn
Overall bit rate mode                    : Variable
Overall bit rate                         : 3 119 Kbps
Movie name                               : Берегись автомобиля
Performer                                : Эльдар Рязанов
Genre                                    : Comedy
Recorded date                            : UTC 1966-11-30 07:00:00
Encoded date                             : UTC 2013-08-22 06:12:36
Tagged date                              : UTC 2013-08-22 06:15:05
Copyright                                : © Mosfilm
Cover                                    : Yes
iTunMOVI                                 : <?xml version="1.0" encoding="UTF-8"?> / <!DOCTYPE plist PUBLIC "-//Apple//DTD PLIST 1.0//EN" "http://www.apple.com/DTDs/PropertyList-1.0.dtd"> / <plist version="1.0"> / <dict> /   <key>cast</key> /   <array> /     <dict> /       <key>name</key> /       <string>Иннокентий Смоктуновский</string> /     </dict> /     <dict> /       <key>name</key> /       <string>Олег Ефремов</string> /     </dict> /     <dict> /       <key>name</key> /       <string>Георгий Жжёнов</string> /     </dict> /     <dict> /       <key>name</key> /       <string>Ольга Аросева</string> /     </dict> /     <dict> /       <key>name</key> /       <string>Любовь Добржанская</string> /     </dict> /     <dict> /       <key>name</key> /       <string>Андрей Миронов</string> /     </dict> /     <dict> /       <key>name</key> /       <string>Анатолий Папанов</string> /     </dict> /     <dict> /       <key>name</key> /       <string>Евгений Евстигнеев</string> /     </dict> /     <dict> /       <key>name</key> /       <string>Любовь Соколова</string> /     </dict> /     <dict> /       <key>name</key> /       <string>Вячеслав Невинный</string> /     </dict> /     <dict> /       <key>name</key> /       <string>Готлиб Ронинсон</string> /     </dict> /     <dict> /       <key>name</key> /       <string>Донатас Банионис</string> /     </dict> /     <dict> /       <key>name</key> /       <string>Галина Волчек</string> /     </dict> /   </array> /   <key>directors</key> /   <array> /     <dict> /       <key>name</key> /       <string>Eldar Ryazanov</string> /     </dict> /   </array> /   <key>producers</key> /   <array> /     <dict> /       <key>name</key> /       <string>Евгений Голынский</string> /     </dict> /   </array> /   <key>screenwriters</key> /   <array> /     <dict> /       <key>name</key> /       <string>Эмиль Брагинский</string> /     </dict> /     <dict> /       <key>name</key> /       <string>Эльдар Рязанов</string> /     </dict> /   </array> /   <key>studio</key> /   <string>© Mosfilm</string> / </dict> / </plist>
sonm                                     : Берегись автомобиля
desc                                     : Фильм повествует о судьбе страхового агента Юрия Деточкина, играющего роль Гамлета в самодеятельном театре и являющегося Робином Гудом XX века в свободное от работы время.
ldes                                     : Фильм повествует о судьбе страхового агента Юрия Деточкина, играющего роль Гамлета в самодеятельном театре и являющегося Робином Гудом XX века в свободное от работы время.
hdvd                                     : 1
stik                                     : 9
akID                                     : -1
sfID                                     : 0
cnID                                     : 46089
xid                                      : Apple:vendor_id:1966-46089

Video
ID                                       : 1
Format                                   : AVC
Format/Info                              : Advanced Video Codec
Format profile                           : High@L4.1
Format settings, CABAC                   : Yes
Format settings, ReFrames                : 12 frames
Codec ID                                 : avc1
Codec ID/Info                            : Advanced Video Coding
Duration                                 : 1h 27mn
Bit rate                                 : 2 976 Kbps
Maximum bit rate                         : 9 732 Kbps
Width                                    : 1 024 pixels
Height                                   : 576 pixels
Display aspect ratio                     : 16:9
Frame rate mode                          : Constant
Frame rate                               : 25.000 fps
Color space                              : YUV
Chroma subsampling                       : 4:2:0
Bit depth                                : 8 bits
Scan type                                : Progressive
Bits/(Pixel*Frame)                       : 0.202
Stream size                              : 1.81 GiB (95%)
Title                                    : Beregis avtomobilya (1966) -Released for NNM-Club by gekka
Writing library                          : x264 core 133 r2334+704+50 a7549b7 tMod [8-bit@4:2:0 X86_64]
Encoding settings                        : cabac=1 / ref=12 / deblock=1:-3:-3 / analyse=0x3:0x113 / me=umh / subme=11 / psy=1 / fade_compensate=0.90 / psy_rd=0.90:0.10 / mixed_ref=1 / me_range=48 / chroma_me=0 / trellis=2 / 8x8dct=1 / cqm=0 / deadzone=21,11 / fast_pskip=0 / chroma_qp_offset=-3 / threads=18 / lookahead_threads=4 / sliced_threads=0 / nr=0 / decimate=0 / interlaced=0 / bluray_compat=0 / constrained_intra=0 / fgo=10 / bframes=11 / b_pyramid=2 / b_adapt=2 / b_bias=0 / direct=1 / weightb=1 / open_gop=0 / weightp=2 / keyint=250 / keyint_min=23 / scenecut=40 / intra_refresh=0 / rc_lookahead=180 / rc=crf / mbtree=1 / crf=17.4000 / qcomp=0.70 / qpmin=0 / qpmax=69 / qpstep=4 / vbv_maxrate=62500 / vbv_bufsize=50000 / crf_max=0.0 / nal_hrd=none / ip_ratio=1.40 / aq=4:0.90 / aq-sensitivity=10.00 / aq-factor=1.00:1.00:1.00 / aq2=0 / aq3=0 / zones=0,300,q=25/0,300,fgo=15
Language                                 : English
Encoded date                             : UTC 2013-08-22 06:12:36
Tagged date                              : UTC 2013-08-22 06:12:51
Matrix coefficients                      : BT.709

Audio
ID                                       : 2
Format                                   : AAC
Format/Info                              : Advanced Audio Codec
Format profile                           : LC
Codec ID                                 : 40
Duration                                 : 1h 27mn
Bit rate mode                            : Variable
Bit rate                                 : 132 Kbps
Maximum bit rate                         : 170 Kbps
Channel(s)                               : 2 channels
Channel positions                        : Front: L R
Sampling rate                            : 48.0 KHz
Compression mode                         : Lossy
Stream size                              : 83.8 MiB (4%)
Title                                    : AAC Russian
Language                                 : Russian
Encoded date                             : UTC 2013-08-22 06:12:48
Tagged date                              : UTC 2013-08-22 06:12:51

Sort Name: Берегись автомобиля
XID: Apple:vendor_id:1966-46089
Content ID: 46089
Copyright: © Mosfilm
ScreenWriters: Эмиль Брагинский, Эльдар Рязанов
Producers: Евгений Голынский
Director: Eldar Ryazanov
Cast: Иннокентий Смоктуновский, Олег Ефремов, Георгий Жжёнов, Ольга Аросева, Любовь Добржанская, Андрей Миронов, Анатолий Папанов, Евгений Евстигнеев, Любовь Соколова, Вячеслав Невинный , Готлиб Ронинсон, Донатас Банионис, Галина Волчек
Rating: ab 0 Jahren
Long Description: Фильм повествует о судьбе страхового агента Юрия Деточкина, играющего роль Гамлета в самодеятельном театре и являющегося Робином Гудом XX века в свободное от работы время.
Description: Фильм повествует о судьбе страхового агента Юрия Деточкина, играющего роль Гамлета в самодеятельном театре и являющегося Робином Гудом XX века в свободное от работы время.
Release Date: 1966-11-30T07:00:00Z
Genre: Comedy
Artist: Эльдар Рязанов
Name: Берегись автомобиля

x264 [info]: frame I:640 Avg QP:13.72 size: 81738
x264 [info]: frame P:35250 Avg QP:17.49 size: 30403
x264 [info]: frame B:94806 Avg QP:20.48 size: 8660
За исходник спасибо: - BLUEBIRD
Скриншоты:


Время раздачи: 24/7 до 10 скачавших
[NNM-Club.me]_Beregis avtomobilya.1966 (SD).m4v.torrent
 Торрент: Платиновая раздача  Зарегистрирован
 
Скачать


Примагнититься
 Зарегистрирован:   22 Авг 2013 09:23:09
 Размер:   1,9 GB  (
 Рейтинг:   4,9 (Голосов: 21)
 Поблагодарили:   68
 Проверка:   Оформление проверено модератором 22 Авг 2013 15:33:37
Как cкачать  ·  Как раздать  ·  Правильно оформить  ·  Поднять ратио!  

_________________
My make-up may be flaking, but my smile still stays on.
Показать сообщения:   
Начать новую тему   Ответить на тему    Торрент-трекер NNM-Club -> Аудио и Видео -> Отечественное видео для устройств Apple Часовой пояс: GMT + 3
Страница 1 из 1