Классический форум-трекер
canvas not supported
Нас вместе: 4 093 337

Джокер / Joker (2012) DVDRip


 
 
RSS
Начать новую тему   Ответить на тему    Торрент-трекер NNM-Club -> Зарубежное кино -> Индийское кино
Автор Сообщение
ruboarm ®
Стаж: 10 лет 5 мес.
Сообщений: 111
Ratio: 49,703
Поблагодарили: 6965
100%
armenia.gif
Джокер / Joker (2012) DVDRip
Жанр: Фантастика, Комедия

Описание:
В 1947 году, когда чертились границы Индии и Пакистана, местечку Паглапур нигде не нашлось места. После одного из боев во время передела границ, пациенты крупнейшей психиатрической лечебницы региона вырвались на свободу и поселились в Паглапуре, создав свою собственную республику. И так они существовали 60 лет! В то время как мир вокруг менялся, Паглапур оставался изолированным, без электричества, без телевидения и без здравого рассудка! И теперь, спустя десятилетия, когда все окончательно забыли об этом месте, учёный НАСА индийского происхождения и его красавица жена направляются в эту деревню. Ученый работает над сверхсекретным проектом по созданию устройств для общения с иностранцами. Так зачем он едет в деревню, колоритные обитатели которой, то воображают себя фонарными столбами, то говорят на языке, напоминающем бред, а то и вовсе считают, что Махатма Ганди всё ещё где-то рядом сражается за независимость? И, что наиболее важно, как они собираются переключить внимание всего Света на эту забытую всеми деревню?

Режиссер: Шириш Кандэр
Актеры: Акшай Кумар, Сонакши Синха, Читрангада Сингх, Миниша Ламба, Говардан Асрани, Шреяс Талпаде, Джавед Джеффри, Автар Гилл, Фара Кхан

Продолжительность: 01:43:33
Качество видео: DVDRip
Перевод: Многоголосый закадровый
Язык субтитров: Английские
Вид субтитров: отдельным файлом



Видеокодек: Xvid
Битрейт видео: ~1547 kbps
Размер кадра: 720x304
Аудио #1: АС3, 48 kHz, 2 ch, 192 kbps, Russian
Аудио #2: АС3, 48 kHz, 2 ch, 192 kbps, Hindi
eneral
Format : AVI
Format/Info : Audio Video Interleave
File size : 1.41 GiB
Duration : 1h 43mn
Overall bit rate : 1 946 Kbps
Writing application : VirtualDubMod 1.5.10.3 | www.virtualdub-fr.org || (build 2550/release)
Writing library : VirtualDubMod build 2550/release

Video
ID : 0
Format : MPEG-4 Visual
Format profile : Advanced Simple@L5
Format settings, BVOP : 1
Format settings, QPel : No
Format settings, GMC : No warppoints
Format settings, Matrix : Default (H.263)
Muxing mode : Packed bitstream
Codec ID : XVID
Codec ID/Hint : XviD
Duration : 1h 43mn
Bit rate : 1 548 Kbps
Width : 720 pixels
Height : 304 pixels
Display aspect ratio : 2.35:1
Frame rate : 23.976 fps
Color space : YUV
Chroma subsampling : 4:2:0
Bit depth : 8 bits
Scan type : Progressive
Compression mode : Lossy
Bits/(Pixel*Frame) : 0.295
Stream size : 1.12 GiB (80%)
Writing library : XviD 1.2.1 (UTC 2008-12-04)

Audio #1
ID : 1
Format : AC-3
Format/Info : Audio Coding 3
Mode extension : CM (complete main)
Format settings, Endianness : Big
Codec ID : 2000
Duration : 1h 43mn
Bit rate mode : Constant
Bit rate : 192 Kbps
Channel(s) : 2 channels
Channel positions : Front: L R
Sampling rate : 48.0 KHz
Bit depth : 16 bits
Compression mode : Lossy
Stream size : 142 MiB (10%)
Alignment : Split accross interleaves
Interleave, duration : 42 ms (1.00 video frame)
Interleave, preload duration : 500 ms

Audio #2
ID : 2
Format : AC-3
Format/Info : Audio Coding 3
Mode extension : CM (complete main)
Format settings, Endianness : Big
Codec ID : 2000
Duration : 1h 43mn
Bit rate mode : Constant
Bit rate : 192 Kbps
Channel(s) : 2 channels
Channel positions : Front: L R
Sampling rate : 48.0 KHz
Bit depth : 16 bits
Compression mode : Lossy
Stream size : 142 MiB (10%)
Alignment : Split accross interleaves
Interleave, duration : 42 ms (1.00 video frame)
Interleave, preload duration : 500 ms
Скриншоты:




Время раздачи: С 18:00 до 23:00
[NNMClub.to]_Dzhoker - Joker (2012).torrent
 Торрент: Платиновая раздача  Зарегистрирован
 
Скачать


Примагнититься
 Зарегистрирован:   06 Окт 2019 15:11:28
 Размер:   1,41 GB  (
 Рейтинг:   4,7 (Голосов: 33)
 Поблагодарили:   133
 Проверка:   Оформление проверено модератором 06 Окт 2019 15:14:40
Как cкачать  ·  Как раздать  ·  Правильно оформить  ·  Поднять ратио!  
Gainulina
Стаж: 10 лет
Сообщений: 290
Ratio: 0,799
29.73%
ukraine.gif
По части плагиатов - эта страна заткнула за поес даже Киркорова))
vkrokus
Стаж: 10 лет 1 мес.
Сообщений: 1236
Ratio: 21,825
100%
Откуда: Земля Русская
Так как сам фильм? И что сплагитировали?
medved29
Стаж: 9 лет
Сообщений: 44
Ratio: 16,418
100%
Откуда: рждённый в СССР
russia.gif
Это просто нечто какое-то
ваывавап
Стаж: 9 лет 3 мес.
Сообщений: 33
Ratio: 1,475
0.62%
В то время как мир вокруг менялся, Паглапур оставался изолированным, без электричества, без телевидения и без здравого рассудка! Это же вообще про Индию. Постоянные перебои с электричеством, а отсутствие здравого рассудка это вообще их национальная черта
NorthOn
 
Админ
Стаж: 13 лет 6 мес.
Сообщений: 13304
Ratio: 1096,308
Поблагодарили: 14450
100%
nnm-club.gif
Торрент перерегистрирован в рамках акции Включаем DHT в древних раздачах
Теперь вам нужно его скачать и открыть в торрент-клиенте, указав в качестве места сохранения раздаваемый файл или папку.

_________________
Либо я найду путь, либо проложу его...
unic81
Стаж: 8 лет 7 мес.
Сообщений: 42
Ratio: 9,514
5.48%
russia.gif
2,4 эмдиби, вголосину
POMA2205
Стаж: 6 лет 2 мес.
Сообщений: 134
Ratio: 4,221
100%
Джокер, которого мы все заслужили
russur
Стаж: 9 лет 3 мес.
Сообщений: 142
Ratio: 5,2
3.93%
Кто-то случайно не того джокера качнул?))
Показать сообщения:   
Начать новую тему   Ответить на тему    Торрент-трекер NNM-Club -> Зарубежное кино -> Индийское кино Часовой пояс: GMT + 3
Страница 1 из 1