Классический форум-трекер
canvas not supported
Нас вместе: 4 079 153

Интерны (2011-2013) SATRip [H.264] (серии 121-164)


 
 
RSS
Начать новую тему   Ответить на тему    Торрент-трекер NNM-Club -> Отечественные сериалы -> Интерны
Автор Сообщение
FedExe ®
Uploader 300+
Стаж: 9 лет 4 мес.
Сообщений: 9667
Ratio: 382,41
Поблагодарили: 926715
100%
Откуда: LoX - living off experien
Интерны (2011-2013) SATRip [H.264] (серии 121-164)
Год выпуска: 2010
Жанр: Комедия


Дата российской премьеры: 29 марта 2010
Дата выхода DVD/Blu-Ray релиза: 15 мая 2010, «Флагман-Трейд»

Режиссер: Максим Пежемский, Заур Болотаев, Милан Килибарда
Актеры: Иван Охлобыстин, Кристина Асмус, Илья Глинников, Александр Ильин мл., Дмитрий Шаракоис, Вадим Демчог, Светлана Камынина, Светлана Пермякова, Один Ланд Байрон

Описание фильма:
Главные герои ситкома — четыре интерна. Они все время попадают в идиотские ситуации, а их руководитель доктор Быков с удовольствием за этим наблюдает. Доводить интернов до белого каления Быкову помогает друг доктор Купитман и мешает главврач больницы Анастасия Кисегач.

Продолжительность: 44 х ~ 00:24:00
Качество видео: SATRip
Сэмпл: Скачать

Видеокодек: MPEG-4 AVC/H.264
Битрейт видео: ~1 231 Кбит/с
Размер кадра: 720х432 (16:9)
Аудиокодек: AC3 2.0
Битрейт аудио: 192 Кбит/с
General
Unique ID : 247231400204710017320906886816391633438 (0xB9FF0922A1FAC389BCB4BB859A221A1E)
Complete name : Interny.121.SATRip-AVC.mkv
Format : Matroska
File size : 242 MiB
Duration : 23mn 17s
Overall bit rate : 1 452 Kbps
Movie name : Интерны (121 серия)
Encoded date : UTC 2013-01-31 18:31:28
Writing application : mkvmerge v6.0.0 ('Coming Up For Air') built on Jan 20 2013 12:38:35
Writing library : libebml v1.3.0 + libmatroska v1.4.0

Video
ID : 1
Format : AVC
Format/Info : Advanced Video Codec
Format profile : High@L3.0
Format settings, CABAC : Yes
Format settings, ReFrames : 5 frames
Format settings, GOP : M=4, N=5
Codec ID : V_MPEG4/ISO/AVC
Duration : 23mn 17s
Bit rate : 1 231 Kbps
Width : 720 pixels
Height : 432 pixels
Display aspect ratio : 16:9
Frame rate : 25.000 fps
Color space : YUV
Chroma subsampling : 4:2:0
Bit depth : 8 bits
Scan type : Progressive
Bits/(Pixel*Frame) : 0.158
Stream size : 205 MiB (85%)
Title : AVC High@L3.0 25,000 кадр/сек
Writing library : x264 core 125 r2208 d9d2288
Encoding settings : cabac=1 / ref=5 / deblock=1:-1:-1 / analyse=0x3:0x133 / me=umh / subme=7 / psy=1 / psy_rd=1.00:0.00 / mixed_ref=1 / me_range=16 / chroma_me=1 / trellis=2 / 8x8dct=1 / cqm=0 / deadzone=21,11 / fast_pskip=0 / chroma_qp_offset=-2 / threads=3 / lookahead_threads=1 / sliced_threads=0 / nr=0 / decimate=1 / interlaced=0 / bluray_compat=0 / constrained_intra=0 / bframes=3 / b_pyramid=2 / b_adapt=2 / b_bias=0 / direct=3 / weightb=1 / open_gop=0 / weightp=2 / keyint=250 / keyint_min=25 / scenecut=40 / intra_refresh=0 / rc_lookahead=50 / rc=crf / mbtree=1 / crf=18.0 / qcomp=0.60 / qpmin=0 / qpmax=69 / qpstep=4 / ip_ratio=1.40 / aq=1:1.00
Language : Russian

Audio
ID : 2
Format : AC-3
Format/Info : Audio Coding 3
Mode extension : CM (complete main)
Codec ID : A_AC3
Duration : 23mn 17s
Bit rate mode : Constant
Bit rate : 192 Kbps
Channel(s) : 2 channels
Channel positions : Front: L R
Sampling rate : 48.0 KHz
Bit depth : 16 bits
Compression mode : Lossy
Stream size : 32.0 MiB (13%)
Title : AC-3 192 Кбит/сек 2 канала
Language : Russian
Скриншоты:


Интерны на трекере

Время раздачи: 24/7 (круглосуточно) - до 5 скачавших, далее по возможности. по личной просьбе Denis_1979
[NNM-Club.me]_Internyi [seriya 121-164] (2011-2013) SATRip-AVC [video].torrent
 Торрент: Платиновая раздача  Зарегистрирован
 
Скачать


Примагнититься
 Зарегистрирован:   23 Авг 2013 11:22:55
 Размер:   10,8 GB  (
 Рейтинг:   4,7 (Голосов: 89)
 Поблагодарили:   372
 Проверка:   Оформление проверено модератором 23 Авг 2013 20:28:44
Как cкачать  ·  Как раздать  ·  Правильно оформить  ·  Поднять ратио!  

_________________

Ну и конечно, данный материал выложен исключительно для ознакомления. После просмотра Вы обязаны удалить все файлы, отформатировать жесткий диск, разбить его молотком, облить кислотой и сжечь остатки в микроволновке.
Загрузка...
Показать сообщения:   
Начать новую тему   Ответить на тему    Торрент-трекер NNM-Club -> Отечественные сериалы -> Интерны Часовой пояс: GMT + 3
Страница 1 из 1