Классический форум-трекер
canvas not supported
Нас вместе: 4 083 416
Платим за отзывы

Такси / Taxi (1998-2007) BDRip [720p] [Квадрология]


 
 
RSS
Начать новую тему   Ответить на тему    Торрент-трекер NNM-Club -> Коллекции / *логии -> Зарубежное кино (коллекции / *логии)
Автор Сообщение
Noxxx ®
Стаж: 12 лет 4 мес.
Сообщений: 64
Ratio: 17,224
Раздал: 4,113 TB
Поблагодарили: 6786
100%
ussr.gif
Такси / Taxi
Год выпуска: 1998
Жанр: Боевик, Комедия, Криминал

Описание фильма:
Молодой таксист Даниэль помешан на быстрой езде. Как ураган проносится он по извилистым улицам Марселя на своем мощном ревущем звере «Пежо», пугая пассажиров и прохожих. Неподкупный полицейский Эмильен вынуждает его помочь в поимке банды грабителей, ускользающих от полиции на своих неуловимых «Мерседесах». И до самого конца не ясно, кто же сможет удержаться на крутом вираже…

Производство: Франция
Режиссер: Жерар Пирес
Актеры: Сами Насери, Фредерик Дифенталь, Марион Котийяр, Мануэла Гурари, Эмма Сьоберг, Бернар Фарси, Жорж Нери, Гай Нгуен, Морис Мурсия, Сабина Бэйл

Продолжительность: 01:29:50
Качество видео: BDRip
Релиз группа: NoLimits-Team



Дата мировой премьеры: 8 апреля 1998
Дата выхода DVD релиза: 13 ноября 2003, «Союз-Видео»

Формат: MKV
Видеокодек: MPEG-4 AVC/H.264
Битрейт видео: ~6063 Кбит/сек
Размер кадра: 1280x544
Аудио 1: AC3 5.1, 448 Кбит/сек, [Русский дубляж]
Аудио 2: AC3 5.1, 448 Кбит/сек, [Французский оригинал]
Субтитры: Русские полные
Чаптеры: Есть
Сэмпл: Ссылка

Скриншоты:
Люк Бессон. Человек, что подарил миру такие прекрасные фильмы, как «Леон», «Пятый Элемент» и «Никита», а так же написавший сценарий для многих фильмов, которые стали культовыми. Так что можно смело сказать, что этот француз веников не вяжет, а даже если и вяжет, то этот веник прослужит века. И сегодня я решил взглянуть на картину, сценаристом которой являлся Люк Бессон, и которая была так любима мною в детстве. Итак, это — «Такси».

Фильм не собирается ходить вокруг да около и сразу знакомит нас с героями картины, которые представляют собой ту еще парочку. Итак, номером один у нас выступает Даниэль Моралес. Человек, который за словом в карман не лезет, у него богатый жизненный опыт которым он готов поделится с каждым сдобрив свои слова достаточной долей цинизма. А так же он любит быструю езду и не просто быструю, а сверх быструю и ради этого он превратил свое такси в гоночную машину способную выжать 217 километров в час. А ведь место действия происходит ни где-нибудь, а во Франции, где жизнь простых людей тиха и размеренна, а автомобили изредка ездят на скорости больше пятидесяти. Так что нет ничего удивительного, что Даниэль загремел в полицейский участок, где и смог поближе познакомится со вторым участником этого шоу — Эмильемом. Человек, который везде и всюду пытается действовать по инструкции и пытается воплотить «гениальные» идеи героев боевиков восьмидесятых. Естественно и в том и в другом случае все заканчивается полным фиаско. Так же наш бравый коп боится садиться за руль, и не без оснований скажу я вам. Потому что все покатульки Эмильема заканчиваются катастрофой. Вот такой вот нестандартный дуэт у нас получается — лихой гонщик, который плевать хотел на правила, и слабовольный коп, любящий учить других жизни при том, что сам он в жизни мало что смыслит.

Из второстепенных же актеров отдельного внимания заслуживает комиссар полиции Жюбен в исполнении Бернара Фарси. Это человек, который из кожи вон лезет, дабы показать насколько он серьезно подходит к своей работе и что медитация это вам не хухры-мухры и это обстоятельство заставляет вспомнить еще об одном комиссаре полиции — Лассаре. Есть в них что-то общее. Возможно, то что их обоих любят подчиненные, а возможно, потому что они своим поведением вызывают улыбку, сами того не подозревая, но в любом случае герой получился очень ярким, да. Остальные герои так же хорошо сыграли свои роли, но в первом фильме им было отведено не так много экранного времени, посему и я не буду останавливаться на них подробно, еще успеется.

Что же касается сюжета то, несмотря на малый хронометраж картины, он не даст вам заскучать благо в кадре всегда что-нибудь да происходит. Вон полиция приняла премьер-министра за преступника и давай устраивать перестрелку с его телохранителями. Вот Эмильем совершил очередную глупость, и его решили познакомить с мусорным контейнером. А вон Моралес развозит людей на такси, после чего «благодарные» пассажиры прощаются со своим ужином. Так что скучать вам не придется, гарантирую.

Обычно в подобного рода фильмах страдает главное — картинка, но тут создатели рассудили здраво и пригласили людей которые могут, а главное умеют снимать гонки и не прогадали ибо сцены погонь получились яркими, красивыми и запоминающимися.

Что же до музыки, то она получилась энергичной и бодрящей. А главную композицию, что играет в самом начале фильма, можно услышать у многих людей в качестве рингтона на телефоне, а это уже о чем-то да говорит.

Подводя итог, хочется сказать, что перед зрителем предстает яркое и запоминающее зрелище. Пусть и с простеньким, но от этого не менее интересным сюжетом, хорошей актерской игрой, запоминающейся музыкой, а операторская работа и вовсе великолепна. Так что коли вы ищите фильм, за которым можно отдохнуть и расслабиться, то обратите свое внимание на «Такси», не пожалеете.
Компания Мерседес подала в суд на фильм «Такси», так как в конце фильма прозвучала фраза в адрес водителя Мерседеса: «Ну что, баварцы, так и ездите на тракторах?». Мерседес выиграл 2 миллиона долларов в этом суде.

Когда Эмильен учится водить машину, мы видим, что название автошколы звучит как: «G. Pires».

Для съёмок погонь режиссёр пригласил операторов с «Формула-1».

Когда взбешённый Даниель лупит рукой по баранке, слышится сигнал клаксона. На самом деле у автомобилей «Пежо» кнопка включения звукового сигнала находится в торце подрулевого переключателя.

Люк Бессон написал сценарий за 30 дней.
Общее
Уникальный идентификатор : 186042350426933825517183507387839729446 (0x8BF6740F79CC26CC927BF9680D6CCF26)
Полное имя : C:\Taxi.(1998).BDRip.720p.mkv
Формат : Matroska
Версия формата : Version 4 / Version 2
Размер файла : 4,36 Гбайт
Продолжительность : 1 ч. 29 м.
Общий поток : 6944 Кбит/сек
Название фильма : Такси.(1998).BDRip.720p.(DVD5).[NoLimits-Team]
Дата кодирования : UTC 2013-05-08 10:53:15
Программа кодирования : mkvmerge v6.0.0 ('Coming Up For Air') built on Jan 20 2013 09:52:00
Библиотека кодирования : libebml v1.3.0 + libmatroska v1.4.0

Видео
Идентификатор : 1
Формат : AVC
Формат/Информация : Advanced Video Codec
Профиль формата : High@L4.1
Параметр CABAC формата : Да
Параметр ReFrames формата : 12 кадров
Идентификатор кодека : V_MPEG4/ISO/AVC
Продолжительность : 1 ч. 29 м.
Битрейт : 6063 Кбит/сек
Ширина : 1280 пикселей
Высота : 544 пикселя
Соотношение сторон : 2,35:1
Режим частоты кадров : Постоянный
Частота кадров : 23,976 кадра/сек
Цветовое пространство : YUV
Субдискретизация насыщенности : 4:2:0
Битовая глубина : 8 бит
Тип развёртки : Прогрессивная
Бит/(Пиксели*Кадры) : 0.363
Размер потока : 3,71 Гбайт (85%)
Заголовок : Такси.(1998).BDRip.720p.(DVD5).[NoLimits-Team]
Библиотека кодирования : x264 core 132 r2310 76a5c3a
Настройки программы : cabac=1 / ref=12 / deblock=1:0:0 / analyse=0x3:0x133 / me=umh / subme=11 / psy=1 / psy_rd=1.00:0.00 / mixed_ref=1 / me_range=64 / chroma_me=1 / trellis=2 / 8x8dct=1 / cqm=0 / deadzone=21,11 / fast_pskip=0 / chroma_qp_offset=-2 / threads=9 / lookahead_threads=2 / sliced_threads=0 / nr=0 / decimate=1 / interlaced=0 / bluray_compat=0 / constrained_intra=0 / bframes=14 / b_pyramid=2 / b_adapt=2 / b_bias=0 / direct=3 / weightb=1 / open_gop=0 / weightp=2 / keyint=240 / keyint_min=23 / scenecut=40 / intra_refresh=0 / rc_lookahead=60 / rc=2pass / mbtree=1 / bitrate=6063 / ratetol=1.0 / qcomp=0.60 / qpmin=0 / qpmax=69 / qpstep=4 / cplxblur=20.0 / qblur=0.5 / ip_ratio=1.40 / aq=1:1.00
Язык : English
Default : Да
Forced : Нет

Аудио #1
Идентификатор : 2
Формат : AC-3
Формат/Информация : Audio Coding 3
Расширение режима : CM (complete main)
Параметр Endianness формата : Big
Идентификатор кодека : A_AC3
Продолжительность : 1 ч. 29 м.
Вид битрейта : Постоянный
Битрейт : 448 Кбит/сек
Каналы : 6 каналов
Расположение каналов : Front: L C R, Side: L R, LFE
Частота : 48,0 КГц
Битовая глубина : 16 бит
Метод сжатия : С потерями
Размер потока : 288 Мбайт (6%)
Заголовок : Дублированный
Язык : Russian
Default : Да
Forced : Нет

Аудио #2
Идентификатор : 3
Формат : AC-3
Формат/Информация : Audio Coding 3
Расширение режима : CM (complete main)
Параметр Endianness формата : Big
Идентификатор кодека : A_AC3
Продолжительность : 1 ч. 29 м.
Вид битрейта : Постоянный
Битрейт : 448 Кбит/сек
Каналы : 6 каналов
Расположение каналов : Front: L C R, Side: L R, LFE
Частота : 48,0 КГц
Битовая глубина : 16 бит
Метод сжатия : С потерями
Размер потока : 288 Мбайт (6%)
Заголовок : Французкий
Язык : French
Default : Нет
Forced : Нет

Текст
Идентификатор : 4
Формат : UTF-8
Идентификатор кодека : S_TEXT/UTF8
Идентификатор кодека/Информация : UTF-8 Plain Text
Заголовок : Русские (полные)
Язык : Russian
Default : Нет
Forced : Нет

Меню
00:00:00.000 : :Chapter 01
00:07:14.559 : :Chapter 02
00:13:02.364 : :Chapter 03
00:17:40.768 : :Chapter 04
00:21:46.012 : :Chapter 05
00:28:42.886 : :Chapter 06
00:34:32.777 : :Chapter 07
00:38:56.333 : :Chapter 08
00:47:43.568 : :Chapter 09
00:53:46.347 : :Chapter 10
00:58:44.478 : :Chapter 11
01:04:58.561 : :Chapter 12
01:09:08.769 : :Chapter 13
01:11:46.091 : :Chapter 14
01:21:48.278 : :Chapter 15
01:25:22.617 : :Chapter 16
Время раздачи: 8:00-22:00

Такси 2 / Taxi 2
Год выпуска: 2000
Жанр: Боевик, Комедия, Криминал

Описание фильма:
Во Францию прибывает министр обороны Японии. Цель его визита — ознакомиться с французским опытом борьбы с терроризмом и подписать «контракт века» о взаимном сотрудничестве.
Неожиданно во время показательных выступлений французской полиции министра обороны похищает гангстерская группировка «Якудза», желающая сорвать заключение наиважнейшего контракта. Даниэль и Эмильен отправляются на поиски высокого гостя. В дело вступает уже хорошо знакомое нам такси…

Производство: Франция
Режиссер: Жерар Кравчик
Актеры: Сами Насери, Фредерик Дифенталь, Марион Котийяр, Эмма Сьоберг, Бернар Фарси, Жан-Кристоф Буве, Фредерик Тирмон, Марк Фор, Хирата Харухико, Цую Симидзу

Продолжительность: 01:28:25
Качество видео: BDRip
Релиз группа: NoLimits-Team



Дата мировой премьеры: 25 марта 2000
Дата премьеры в России: 21 декабря 2000, «DVD Group»
Дата выхода DVD релиза: 18 января 2007, «CP-Digital»
Дата выхода Blu-Ray релиза: 14 сентября 2011, «Кармен Видео»

Формат: MKV
Видеокодек: MPEG-4 AVC/H.264
Битрейт видео: ~6175 Кбит/сек
Размер кадра: 1280x544
Аудио 1: AC3 5.1, 448 Кбит/сек, [Русский дубляж]
Аудио 2: AC3 5.1, 448 Кбит/сек, [Французский оригинал]
Субтитры: Русские полные
Чаптеры: Есть
Сэмпл: Ссылка

Скриншоты:
Хорошего фильма должно быть много, а фильм который просто напрашивается на продолжение, как правило, это продолжение получает. Обычно это банальнейшая попытка срубить легких денег на людях что полюбили оригинальную киноленту, но к счастью для нас сегодняшний гость является качественным сиквелом, который по некоторым параметрам даже превосходит оригинал. Итак, это — «Такси 2».

Все мы помним, что у Даниэля Моралес в конце первой части отобрали права, опять. Но разве это повод герою отказаться от любимого дела, а именно развозить людей до места назначения в кратчайшие сроки? Неа. Не повод. Вот и наш герой преспокойненько разъезжает по городу без прав и в ус не дует. А если вдруг что, то Даниэль усовершенствовал свое такси, да так, что Фантомас с Джеймсом Бондом обзавидуются. И все бы ничего, но возлюбленная героя хочет познакомить Даниэля со своим отцом, который оказывается… военным и что хуже всего — боевым генералом! А где военные, там и полиция, а где полиция там и закадычный друг Даниэля, как всегда нуждающийся в помощи. Нда, не жизнь, а сказка.

А что же Эмильен? О, он ничуть не изменился со времени нашей последней с ним встречи. Он все так же ничего не может сделать самостоятельно, все так же постоянно оказывается в мусорке (В первой части он оказался один раз, а в сиквеле он туда попал аж дважды, эх не завидую я его герою в триквеле), но на этот раз он получил таки права. Да-да, вы не ослышались. Человек, который не способен отличить право от лева, и педаль газа от педали тормоза, с двадцать седьмой попытки таки получил права. Что ж, берегись Франция, ведь за рулем худший водитель из всех, когда-либо живших на этой земле!

Что же касается второстепенных героев, то вся старая гвардия в сборе. И обаятельный комиссар Жюбен, который как обычно пытается все сделать красиво и с помпой, но если в первом фильме он еще легко отделался, то тут из-за своих выкрутасов загремел в больницу. И возлюбленная Даниэля — Лили. И спустя два года характер этой красотки так и не изменился и она, как и раньше остра на язык и с явной неохотой идет на компромиссы. Из новичков же хотелось бы отметить боевого генерала Эдмонда Бертенью. Суровый военный, который, участвуя в боевых действиях, получил пару психологических травм, которые выглядят скорее забавно, нежели опасно. Да и сам старичок получился весьма позитивным, даром что со второго фильма он прописался во франшизе «Такси» надолго.

Сюжет? Ах да, сюжет. Он, как и в случае с первой частью прикручен к фильму для галочки. Да и в самом деле кому нужен сюжет, когда есть столь яркие и запоминающиеся герои? Ну, ладно-ладно, зануды. Так вот японский премьер-министр приезжает во Францию, дабы встретится на самете с премьер-министр Франции, дабы укрепить дружбу между этими двумя странами. Но злые японские бандиты, сиречь якудзы похищают иноземного посла, дабы привести свой зловещий план в действие, а именно загипнотизировать премьер-министра и заставить выполнять все их приказы. Ага, и я о том же. Так что повторюсь — сюжет тут не главное.

Что касается операторской работы то, несмотря на смену человека, отвечающего за съемки, на фильм это особо не повлияло, и сцены погонь выглядят все так же хорошо, а во время мирных сцен оператор демонстрирует прекрасные пейзажи Франции.

По сути своей перед нами предстает достойное продолжение первой части, а именно хороший комедийный боевик с запоминающимися героями, погонями, перестрелками и множеством шуток, как удачных, так и не очень. Так что если вам понравилась первая часть или вы просто ищете фильм, который помог бы вам хорошо провести вечерок, то обратите свое внимание на «Такси 2», не пожалеете.
При съёмках финальной сцены фильма погиб член операторской группы Ален Дютарте.
Общее
Уникальный идентификатор : 192303563508733253003951286065718776818 (0x90AC51B2FCD4083BB8BF0A8E123E53F2)
Полное имя : C:\Taxi.2.(2000).BDRip.720p.mkv
Формат : Matroska
Версия формата : Version 4 / Version 2
Размер файла : 4,37 Гбайт
Продолжительность : 1 ч. 28 м.
Общий поток : 7068 Кбит/сек
Название фильма : Такси.2.(2000).BDRip.720p.(DVD5).[NoLimits-Team]
Дата кодирования : UTC 2013-05-08 13:52:14
Программа кодирования : mkvmerge v6.0.0 ('Coming Up For Air') built on Jan 20 2013 09:52:00
Библиотека кодирования : libebml v1.3.0 + libmatroska v1.4.0

Видео
Идентификатор : 1
Формат : AVC
Формат/Информация : Advanced Video Codec
Профиль формата : High@L4.1
Параметр CABAC формата : Да
Параметр ReFrames формата : 12 кадров
Идентификатор кодека : V_MPEG4/ISO/AVC
Продолжительность : 1 ч. 28 м.
Битрейт : 6175 Кбит/сек
Ширина : 1280 пикселей
Высота : 544 пикселя
Соотношение сторон : 2,35:1
Режим частоты кадров : Постоянный
Частота кадров : 24,000 кадра/сек
Цветовое пространство : YUV
Субдискретизация насыщенности : 4:2:0
Битовая глубина : 8 бит
Тип развёртки : Прогрессивная
Бит/(Пиксели*Кадры) : 0.370
Размер потока : 3,72 Гбайт (85%)
Заголовок : Такси.2.(2000).BDRip.720p.(DVD5).[NoLimits-Team]
Библиотека кодирования : x264 core 132 r2310 76a5c3a
Настройки программы : cabac=1 / ref=12 / deblock=1:0:0 / analyse=0x3:0x133 / me=umh / subme=11 / psy=1 / psy_rd=1.00:0.00 / mixed_ref=1 / me_range=64 / chroma_me=1 / trellis=2 / 8x8dct=1 / cqm=0 / deadzone=21,11 / fast_pskip=0 / chroma_qp_offset=-2 / threads=9 / lookahead_threads=2 / sliced_threads=0 / nr=0 / decimate=1 / interlaced=0 / bluray_compat=0 / constrained_intra=0 / bframes=14 / b_pyramid=2 / b_adapt=2 / b_bias=0 / direct=3 / weightb=1 / open_gop=0 / weightp=2 / keyint=240 / keyint_min=24 / scenecut=40 / intra_refresh=0 / rc_lookahead=60 / rc=2pass / mbtree=1 / bitrate=6175 / ratetol=1.0 / qcomp=0.60 / qpmin=0 / qpmax=69 / qpstep=4 / cplxblur=20.0 / qblur=0.5 / ip_ratio=1.40 / aq=1:1.00
Язык : English
Default : Да
Forced : Нет

Аудио #1
Идентификатор : 2
Формат : AC-3
Формат/Информация : Audio Coding 3
Расширение режима : CM (complete main)
Параметр Endianness формата : Big
Идентификатор кодека : A_AC3
Продолжительность : 1 ч. 28 м.
Вид битрейта : Постоянный
Битрейт : 448 Кбит/сек
Каналы : 6 каналов
Расположение каналов : Front: L C R, Side: L R, LFE
Частота : 48,0 КГц
Битовая глубина : 16 бит
Метод сжатия : С потерями
Размер потока : 283 Мбайт (6%)
Заголовок : Дублированный
Язык : Russian
Default : Да
Forced : Нет

Аудио #2
Идентификатор : 3
Формат : AC-3
Формат/Информация : Audio Coding 3
Расширение режима : CM (complete main)
Параметр Endianness формата : Big
Идентификатор кодека : A_AC3
Продолжительность : 1 ч. 28 м.
Вид битрейта : Постоянный
Битрейт : 448 Кбит/сек
Каналы : 6 каналов
Расположение каналов : Front: L C R, Side: L R, LFE
Частота : 48,0 КГц
Битовая глубина : 16 бит
Метод сжатия : С потерями
Размер потока : 283 Мбайт (6%)
Заголовок : Французкий
Язык : French
Default : Нет
Forced : Нет

Текст
Идентификатор : 4
Формат : UTF-8
Идентификатор кодека : S_TEXT/UTF8
Идентификатор кодека/Информация : UTF-8 Plain Text
Заголовок : Русские (полные)
Язык : Russian
Default : Нет
Forced : Нет

Меню
00:00:00.000 : :Chapter 01
00:07:29.750 : :Chapter 02
00:14:43.500 : :Chapter 03
00:23:18.416 : :Chapter 04
00:31:25.333 : :Chapter 05
00:39:41.000 : :Chapter 06
00:46:52.791 : :Chapter 07
00:54:17.083 : :Chapter 08
01:01:14.125 : :Chapter 09
01:08:10.333 : :Chapter 10
01:15:46.083 : :Chapter 11
01:23:34.125 : :Chapter 12
Время раздачи: 8:00-22:00

Такси 3 / Taxi 3
Год выпуска: 2003
Жанр: Боевик, Комедия, Криминал

Описание фильма:
Банда Санта-Клаусов терроризирует Марсель в канун Рождества, обещая обчистить город до основания. Комиссар полиции уже задумал провести крупномасштабную операцию под кодовым названием «Снеговик», в который главная роль отведена таксисту Даниелю и полицейскому Эмильену.
Но как бы наши друзья не натворили куда больший вред, чем сами преступники, ведь чтобы поймать «мафию Дедов Морозов» друзья вытворяют на своем такси такое!

Производство: Франция
Режиссер: Жерар Кравчик
Актеры: Сами Насери, Фредерик Дифенталь, Бернар Фарси, Бай Лин, Эмма Сьоберг, Марион Котийяр, Эдуард Монтут, Жан-Кристоф Буве, Леон-Пьер Мондини, Бернард Льопис

Продолжительность: 01:27:24
Качество видео: BDRip
Релиз группа: NoLimits-Team



Дата мировой премьеры: 29 января 2003
Дата премьеры в России: 27 марта 2003, «Гельварс»
Дата выхода DVD релиза: 23 июля 2009, «CP-Digital»
Дата выхода Blu-Ray релиза: 21 сентября 2011, «Кармен Видео»

Формат: MKV
Видеокодек: MPEG-4 AVC/H.264
Битрейт видео: ~6259 Кбит/сек
Размер кадра: 1280x544
Аудио 1: AC3 5.1, 448 Кбит/сек, [Русский дубляж]
Аудио 2: AC3 5.1, 448 Кбит/сек, [Французский оригинал]
Субтитры: Русские полные
Чаптеры: Есть
Сэмпл: Ссылка

Скриншоты:
Вот уже восемь месяцев Марсель содрогается от череды ужасных преступлений, которые проворачивает банда Дедов Морозов! Казалось бы, за столь долгий промежуток времени полиции должно было хотя бы банально повезти, и они бы схватили опасные криминальные элементы, но мы ведь забывает о паре важных вещей. И одной из них является тот факт, что комиссаром полиции сего славного города является Жюбен, который вместо того, чтобы ловить преступников, придумывает все более и более нелепые планы по их поимке, которые дают прямо противоположный результат. А что же Эмильен? А на него надежды мало ведь он погряз в делах семейных. Ну что ж, полиции придется прибегнуть к своему главному и, пожалуй, единственному козырю — таксисту Даниэлю!

К сожалению, к третьей части фильма картина утратила главное, а именно — драйв. Количество экшн-сцен был сокращено до минимума, шутки так же были урезаны и создатели решили сосредоточиться на жизни главных героев. И если подобное срабатывало, скажем, со «Смертельным оружием» то в фильмах серии «Такси» главным всегда были интересные погони, и запоминающиеся персонажи, которые попадали в столь же запоминающиеся передряги. А тут запоминающаяся погоня была только одна и то только в самом начале картины, где Даниэль подвозил крутого спецагента в исполнении Сильвестра Сталлоне. Что же до юмора, то его тут стало куда как меньше и картина пытается выглядеть крайне серьезно. Ну да, Эмильен вновь окажется в помойке, но это уже дань традиции, а не попытка пошутить. Ну да Даниэль сократит дорогу, «поучаствовав» в чемпионате лыжников, но ведь и это уже было. Так что тут создатели угодили в лужу. Что в принципе и не удивительно, так как очень сложно поддерживать один и тот же темп на протяжении целых трех фильмов.

Теперь что касается актеров. Еще во второй части мной была замечена тенденция, что создатели захотели раскрыть получше второстепенных персонажей. Идея конечно неплохая, но в ней есть один существенный недостаток, а заключается он в том, что герои Насери и Дефенталя получили очень мало экранного времени, а ведь именно из-за них мы смотрим этот фильм. И если герой Насери остался все таким же ярким и заводным таксистом, то с персонажем Дефенталя приключилась прямо таки беда. Его герой стал скучным и не просто скучным, а очень скучным. Да он узнал, что Петра ждет ребенка, но разве это повод большую часть фильма изображать бревно? Нет, я понимаю, если бы перед нами предстала бы мелодрама, тогда да, тогда такое поведение более чем оправданно, но это же комедийный боевик! Зачем надо было уходить в крайности? Из второстепенных же актеров хотелось бы выделить разве что Бернарда Фарси и Жана-Критофа Буве. Вот их персонажи остались верны себе и своими выходками продолжают радовать зрителя.

Что же до операторской работы, то она как всегда демонстрирует красивые пейзажи, как Марселя, так и Швейцарии, а сцены погонь так же сняты добротно. Иногда правда нам демонстрируют вид из глаз героя, и возникает закономерный вопрос — зачем? Но к счастью это случается не слишком часто и особо не напрягает.

Подводя итог, хотелось бы сказать, что серия плавно стала сбавлять обороты и третья часть очень сильно отличается от первых двух. Да тут по-прежнему есть несколько сцен погонь, да порой герои выдают качественные шутки, но их слишком мало, чтобы однозначно заявить, что фильм удался. В целом же если вам нравятся первые две части франшизы, то вы можете глянуть и третий фильм, но не ждите от него многого, всем же остальным я бы все же не рекомендовал тратить время на этот фильм, ибо не цепляет.
В одном из кадров можно заметить плакат к фильму «Васаби» режиссером которого является Жерар Кравчик, а продюсером и сценаристом — Люк Бессон.

Когда Даниэль везет персонажа Сильвестра Сталлоне, он обгоняет поезд TGV, «крейсерская» скорость которого превышает 300 км/ч.

Когда Даниэль уже стартовал в начале фильма, на задней левой панели автомобиля видна камера, откуда снимали предыдущие кадры.
Общее
Уникальный идентификатор : 173831672784689381384558241056895447242 (0x82C6C32BFBF4D52184C8C282D26AB0CA)
Полное имя : C:\Taxi.3.(2003).BDRip.720p.mkv
Формат : Matroska
Версия формата : Version 4 / Version 2
Размер файла : 4,36 Гбайт
Продолжительность : 1 ч. 27 м.
Общий поток : 7150 Кбит/сек
Название фильма : Такси.3.(2003).BDRip.720p.(DVD5).[NoLimits-Team]
Дата кодирования : UTC 2013-05-10 09:00:47
Программа кодирования : mkvmerge v6.0.0 ('Coming Up For Air') built on Jan 20 2013 09:52:00
Библиотека кодирования : libebml v1.3.0 + libmatroska v1.4.0

Видео
Идентификатор : 1
Формат : AVC
Формат/Информация : Advanced Video Codec
Профиль формата : High@L4.1
Параметр CABAC формата : Да
Параметр ReFrames формата : 12 кадров
Идентификатор кодека : V_MPEG4/ISO/AVC
Продолжительность : 1 ч. 27 м.
Битрейт : 6259 Кбит/сек
Ширина : 1280 пикселей
Высота : 544 пикселя
Соотношение сторон : 2,35:1
Режим частоты кадров : Постоянный
Частота кадров : 24,000 кадра/сек
Цветовое пространство : YUV
Субдискретизация насыщенности : 4:2:0
Битовая глубина : 8 бит
Тип развёртки : Прогрессивная
Бит/(Пиксели*Кадры) : 0.375
Размер потока : 3,73 Гбайт (85%)
Заголовок : Такси.3.(2003).BDRip.720p.(DVD5).[NoLimits-Team]
Библиотека кодирования : x264 core 132 r2310 76a5c3a
Настройки программы : cabac=1 / ref=12 / deblock=1:0:0 / analyse=0x3:0x133 / me=umh / subme=11 / psy=1 / psy_rd=1.00:0.00 / mixed_ref=1 / me_range=64 / chroma_me=1 / trellis=2 / 8x8dct=1 / cqm=0 / deadzone=21,11 / fast_pskip=0 / chroma_qp_offset=-2 / threads=9 / lookahead_threads=2 / sliced_threads=0 / nr=0 / decimate=1 / interlaced=0 / bluray_compat=0 / constrained_intra=0 / bframes=14 / b_pyramid=2 / b_adapt=2 / b_bias=0 / direct=3 / weightb=1 / open_gop=0 / weightp=2 / keyint=240 / keyint_min=24 / scenecut=40 / intra_refresh=0 / rc_lookahead=60 / rc=2pass / mbtree=1 / bitrate=6259 / ratetol=1.0 / qcomp=0.60 / qpmin=0 / qpmax=69 / qpstep=4 / cplxblur=20.0 / qblur=0.5 / ip_ratio=1.40 / aq=1:1.00
Язык : English
Default : Да
Forced : Нет

Аудио #1
Идентификатор : 2
Формат : AC-3
Формат/Информация : Audio Coding 3
Расширение режима : CM (complete main)
Параметр Endianness формата : Big
Идентификатор кодека : A_AC3
Продолжительность : 1 ч. 27 м.
Вид битрейта : Постоянный
Битрейт : 448 Кбит/сек
Каналы : 6 каналов
Расположение каналов : Front: L C R, Side: L R, LFE
Частота : 48,0 КГц
Битовая глубина : 16 бит
Метод сжатия : С потерями
Размер потока : 280 Мбайт (6%)
Заголовок : Дублированный
Язык : Russian
Default : Да
Forced : Нет

Аудио #2
Идентификатор : 3
Формат : AC-3
Формат/Информация : Audio Coding 3
Расширение режима : CM (complete main)
Параметр Endianness формата : Big
Идентификатор кодека : A_AC3
Продолжительность : 1 ч. 27 м.
Вид битрейта : Постоянный
Битрейт : 448 Кбит/сек
Каналы : 6 каналов
Расположение каналов : Front: L C R, Side: L R, LFE
Частота : 48,0 КГц
Битовая глубина : 16 бит
Метод сжатия : С потерями
Размер потока : 280 Мбайт (6%)
Заголовок : Французкий
Язык : French
Default : Нет
Forced : Нет

Текст
Идентификатор : 4
Формат : UTF-8
Идентификатор кодека : S_TEXT/UTF8
Идентификатор кодека/Информация : UTF-8 Plain Text
Заголовок : Русские (полные)
Язык : Russian
Default : Нет
Forced : Нет

Меню
00:00:00.000 : :Chapter 01
00:08:29.833 : :Chapter 02
00:15:59.833 : :Chapter 03
00:23:21.000 : :Chapter 04
00:30:43.333 : :Chapter 05
00:39:43.166 : :Chapter 06
00:47:47.500 : :Chapter 07
00:55:08.916 : :Chapter 08
01:03:00.666 : :Chapter 09
01:10:09.291 : :Chapter 10
01:17:52.125 : :Chapter 11
01:21:35.708 : :Chapter 12
01:27:15.708 : :Chapter 13
Время раздачи: 8:00-22:00

Такси 4 / Taxi 4
Год выпуска: 2007
Жанр: Боевик, Комедия, Криминал

Описание фильма:
Продолжение знаменитой автомобильной саги. Спустя пять лет после событий третьего фильма, Даниэль и Эмильен снова вместе и мы вновь имеем возможность наблюдать за их приключениями - на этот раз на Лазурном берегу.
Преступника № 1 транспортируют из Бельгии в Конго… через Марсель. Всего несколько часов самый опасный человек в мире, надежно упакованный в скафандр и железную клетку, должен пробыть в полицейском участке комиссара Жибера.
Но стеречь преступника доверили Эмильену… Петра внедрится в банду и очарует злодея, Жибер задаст жару бандитам и покажет, как настоящие французы играют в футбол. И, конечно, полицейским Марселя опять не обойтись без помощи Даниеля и его реактивного такси.

Производство: Франция
Режиссер: Жерар Кравчик
Актеры: Сами Насери, Фредерик Дифенталь, Бернар Фарси, Эмма Сьоберг, Эдуард Монтаут, Жан-Кристоф Буве, Жан-Люк Кучар, Франсуа Дамиенс, Морад Зегвенди, Дрисс Спиноза

Продолжительность: 01:37:26
Качество видео: BDRip
Релиз группа: NoLimits-Team



Дата мировой премьеры: 14 февраля 2007
Дата премьеры в России: 06 марта 2007, «Централ Партнершип»
Дата выхода DVD релиза: 05 апреля 2007, «CP-Digital»
Дата выхода Blu-Ray релиза: 23 сентября 2011, «Кармен Видео»

Формат: MKV
Видеокодек: MPEG-4 AVC/H.264
Битрейт видео: ~5519 Кбит/сек
Размер кадра: 1280x544
Аудио 1: AC3 5.1, 448 Кбит/сек, [Русский дубляж]
Аудио 2: AC3 5.1, 448 Кбит/сек, [Французский оригинал]
Субтитры: Форсированные Русские, Русские полные,
Чаптеры: Есть
Режиссерская версия: На не переведенные места есть форсирующие субтиры.
Сэмпл: Ссылка

Скриншоты:
И вновь в славном городе Марселе не все спокойно. Ведь в этот чудесный город прибывает преступник номер один. Ну и что, что в клетке и в цепях? Долго ли умеючи провести аферу и сбежать из полицейского участка при этом убедить блюстителей правопорядка в своей невиновности? Нет, не долго. И вот уже комиссар Жюбен кричит свою коронную фразу, а Эмильен умоляет своего лучшего друга помочь ему «в последний раз». Да, все верно. Это — «Такси 4».

В долгоиграющих сериалов существует такая практика изменять характер героя на прямо противоположный. То бишь в одном сезоне у нас был хороший парень, а уже в следующем перед зрителем предстает парень плохой. При этом переход от светлой личности к темной ничем не обусловлен. Да и зачем? Куда легче изменить характер героя под сценарий, чем переписывать сценарий ради одного героя. Но с фильмами, превратившимися в своего рода сериалы все не так просто и там нужно чтобы у героя был стимул изменится в ту или иную сторону, и простое желание сценаристов так удобно уже не котируется. Я не просто так начал этот разговор, так как один из героев франшизы «Такси» изменился до неузнаваемости. И речь идет об Эмильене. Помните в первых трех частях перед нами был глуповатый и неуверенный в себе человек, который обожал предлагать идеи одна глупее другой? Так вот забудьте! Так как перед зрителем предстает французский Джеймс Бонд, только гаджетами его обделили. Он умен, находчив и если и попадает в дурацкие ситуации то создается ощущение что это тонкий расчет, а никак не случайность.

А что же любимый всеми Даниэль Моралес? А он из хорошего водителя переквалифицировался в плохую няньку, и который стал тенью себя прежнего. Он действует и ведет себя скорее как заводная игрушка, а не живой человек и на протяжение всего фильма с лица актера не сходит выражение — «оставьте меня в покое, я просто отрабатываю свой гонорар!»

А остальные актеры? А они не играют. Вообще. Они придуриваются. Знаете, у меня сложилось такое впечатление, что сценарий у картины писался на ходу, а герои были вынуждены импровизировать. И доимпровизировались до того, что мне этот фильм уже на тридцатой минуте хотелось выключить. Браво господа, сценаристы! Браво!

Так же вызывает нарекание тот факт, что фильм называется «такси», но этого самого такси в фильме практически нет. Нет, оно есть, вот только сцен с чудо-машиной хорошо, если будет три за весь фильм, но эти самые сцены лишены того драйва и задора что был в предшественниках. Так, скучные покатульки по улицам Марселя не более.

Подводя итог, хочется сказать, что неумение вовремя остановится, привело создателей к тому что мы имеем, а именно кошмарное завершение прекрасной франшизы. Персонажи стали картонными, сюжет высосан из пальца, юмор примитивен, а интересных сцен с погонями не завезли. Так что мой вам совет если вы не являетесь мазохистами, то обходите этот фильм стороной.
Эмильен прячет видеоигры на рабочем месте. Одна из них — гоночный симулятор «Test Drive Unlimited».

На машине Даниэля номерной знак с цифрами 2007. 2007 год — год выхода фильма.
Общее
Уникальный идентификатор 231656136668745479153770694966774586447 (0xAE47595AC298C80692109990ADEBDC4F)
Полное имя C:\Taxi.4.(2007).BDRip.720p.mkv
Формат Matroska
Версия формата Version 4 Version 2
Размер файла 4,36 Гбайт
Продолжительность 1 ч. 37 м.
Общий поток 6411 Кбитсек
Название фильма Такси.4.(2007).BDRip.720p.(DVD5).[NoLimits-Team]
Дата кодирования UTC 2013-05-10 193954
Программа кодирования mkvmerge v6.0.0 ('Coming Up For Air') built on Jan 20 2013 095200
Библиотека кодирования libebml v1.3.0 + libmatroska v1.4.0

Видео
Идентификатор 1
Формат AVC
ФорматИнформация Advanced Video Codec
Профиль формата High@L4.1
Параметр CABAC формата Да
Параметр ReFrames формата 12 кадров
Идентификатор кодека V_MPEG4ISOAVC
Продолжительность 1 ч. 37 м.
Битрейт 5519 Кбитсек
Ширина 1280 пикселей
Высота 544 пикселя
Соотношение сторон 2,351
Режим частоты кадров Постоянный
Частота кадров 23,976 кадрасек
Цветовое пространство YUV
Субдискретизация насыщенности 420
Битовая глубина 8 бит
Тип развёртки Прогрессивная
Бит(ПикселиКадры) 0.331
Размер потока 3,67 Гбайт (84%)
Заголовок Такси.4.(2007).BDRip.720p.(DVD5).[NoLimits-Team]
Библиотека кодирования x264 core 132 r2310 76a5c3a
Настройки программы cabac=1 ref=12 deblock=100 analyse=0x30x133 me=umh subme=11 psy=1 psy_rd=1.000.00 mixed_ref=1 me_range=64 chroma_me=1 trellis=2 8x8dct=1 cqm=0 deadzone=21,11 fast_pskip=0 chroma_qp_offset=-2 threads=9 lookahead_threads=2 sliced_threads=0 nr=0 decimate=1 interlaced=0 bluray_compat=0 constrained_intra=0 bframes=14 b_pyramid=2 b_adapt=2 b_bias=0 direct=3 weightb=1 open_gop=0 weightp=2 keyint=240 keyint_min=23 scenecut=40 intra_refresh=0 rc_lookahead=60 rc=2pass mbtree=1 bitrate=5519 ratetol=1.0 qcomp=0.60 qpmin=0 qpmax=69 qpstep=4 cplxblur=20.0 qblur=0.5 ip_ratio=1.40 aq=11.00
Язык English
Default Да
Forced Нет

Аудио #1
Идентификатор 2
Формат AC-3
ФорматИнформация Audio Coding 3
Расширение режима CM (complete main)
Параметр Endianness формата Big
Идентификатор кодека A_AC3
Продолжительность 1 ч. 37 м.
Вид битрейта Постоянный
Битрейт 448 Кбитсек
Каналы 6 каналов
Расположение каналов Front L C R, Side L R, LFE
Частота 48,0 КГц
Битовая глубина 16 бит
Метод сжатия С потерями
Размер потока 312 Мбайт (7%)
Заголовок Дублированный
Язык Russian
Default Да
Forced Нет

Аудио #2
Идентификатор 3
Формат AC-3
ФорматИнформация Audio Coding 3
Расширение режима CM (complete main)
Параметр Endianness формата Big
Идентификатор кодека A_AC3
Продолжительность 1 ч. 37 м.
Вид битрейта Постоянный
Битрейт 448 Кбитсек
Каналы 6 каналов
Расположение каналов Front L C R, Side L R, LFE
Частота 48,0 КГц
Битовая глубина 16 бит
Метод сжатия С потерями
Размер потока 312 Мбайт (7%)
Заголовок Французкий
Язык French
Default Нет
Forced Нет

Текст #1
Идентификатор 4
Формат UTF-8
Идентификатор кодека S_TEXTUTF8
Идентификатор кодекаИнформация UTF-8 Plain Text
Заголовок Русские (форсированные)
Язык Russian
Default Да
Forced Да

Текст #2
Идентификатор 5
Формат UTF-8
Идентификатор кодека S_TEXTUTF8
Идентификатор кодекаИнформация UTF-8 Plain Text
Заголовок Русские (полные)
Язык Russian
Default Нет
Forced Нет

Меню
000506.889 Chapter 01
001040.973 Chapter 02
002459.080 Chapter 03 Chapter 04
003546.811 Chapter 05
004444.056 Chapter 06
005206.581 Chapter 07
010047.852 Chapter 08
010934.545 Chapter 09
011757.464 Chapter 10
012500.000 Chapter 11
Время раздачи: 8:00-22:00
[NNM-Club.me]_Taksi.Kvadrologiya.torrent
 Торрент: Платиновая раздача  Зарегистрирован
 
Скачать


Примагнититься
 Зарегистрирован:   25 Авг 2013 01:10:12
 Размер:   17,5 GB  (
 Рейтинг:   4,9 (Голосов: 175)
 Поблагодарили:   570
 Проверка:   Оформление проверено модератором 25 Авг 2013 13:20:12
Как cкачать  ·  Как раздать  ·  Правильно оформить  ·  Поднять ратио!  

_________________

uncleandy
Стаж: 9 лет 9 мес.
Сообщений: 115
Ratio: 124,763
100%
Ооо! Спасибо! Давно ждал!
kRONiCXXII
Стаж: 7 лет 5 мес.
Сообщений: 915
Ratio: 7,725
100%
Откуда: Россия
russia.gif
Первая самая лучшая! :)
Vitvint
Стаж: 8 лет 7 мес.
Сообщений: 74
Ratio: 75,974
Раздал: 104,1 TB
100%
kRONiCXXII писал(а): Перейти к сообщению
Первая самая лучшая! :)


Рейтинги это и показывают, что с каждой частью всё хуже и хуже :D
Dialeksin
Стаж: 8 лет 10 мес.
Сообщений: 153
Ratio: 19,221
100%
Отлично! С удовольствием пересмотрю все четыре! Автор, пожимаю руку! :клево:
Makavely7
Стаж: 8 лет 10 мес.
Сообщений: 71
Ratio: 7,827
94.25%
russia.gif
А рип на 1080р будет???
chuk1496
Стаж: 7 лет 4 мес.
Сообщений: 5
5.58%
а что с переводом в 4-й части?
местами тупо французский,без вариантов
uncleandy
Стаж: 9 лет 9 мес.
Сообщений: 115
Ratio: 124,763
100%
Что-то меня смущает сильно размытая начальная заставка во 2-4 частях. Почему она такая размытая? Это не ресэмплинг случаем?
доктор Пиявик
 
Стаж: 8 лет 1 мес.
Сообщений: 192
Ratio: 39,578
100%
Откуда: КЦРЭ
Noxxx, большое спасибо за отличный релиз! :приветствую:
.
.
chuk1496 писал(а): Перейти к сообщению
а что с переводом в 4-й части?
местами тупо французский,без вариантов

А потому, что это — Режиссёрская версия: На непереведённые места есть форсирующие субтитры.

uncleandy писал(а): Перейти к сообщению
Что-то меня смущает сильно размытая начальная заставка во 2-4 частях. Почему она такая размытая? Это не ресэмплинг случаем?

Ну, сам-то фильм чёткий, не похоже на ресэмплинг. Что там с первой заставкой — шут его знает... :незнает:

_________________

— And Beast, never forget. Mutant and proud!
uncleandy
Стаж: 9 лет 9 мес.
Сообщений: 115
Ratio: 124,763
100%
доктор Пиявик писал(а): Перейти к сообщению
uncleandy писал(а): Перейти к сообщению
Что-то меня смущает сильно размытая начальная заставка во 2-4 частях. Почему она такая размытая? Это не ресэмплинг случаем?

Ну, сам-то фильм чёткий, не похоже на ресэмплинг. Что там с первой заставкой — шут его знает... :незнает:


Вроде для экономии места иногда заставку делают с сильно заниженным качеством. Хотя, зачем такое в HD релизе - не совсем понятно.
Mouse32
Стаж: 6 лет 8 мес.
Сообщений: 97
Ratio: 18,493
100%
confederate.gif
Спасибо!!!!! :супер!:
Витек25
Стаж: 8 лет 7 мес.
Сообщений: 5
Ratio: 17,236
100%
russia.gif
Спасибо за все части сразу
Юлиятрикс
Стаж: 3 года 5 мес.
Сообщений: 9
100%
Откуда: :POLSKA: #Радужная​Гвардия​
poland.gif
:С п а с и б к и:



PS. Первая часть хороша , вторая в Серии — лучшая . Ну а четвертая , на мой взгляд , получилась намного лучше третьей , но не второй , третья же совсем слаба .

Насколько же сексуальна Эмма Сьоберг! :blush: :love:

Ремейк скоро выйдет в прокат , но там , увы , нет Сами Насери , а без него и Такси нет .
По большому счету , весь основной оригинальный каст там отсутствует , кроме Бернара Фарси .

Точнее не ремейк , а сиквел своего рода , со старым Пежо .

_________________
Показать сообщения:   
Начать новую тему   Ответить на тему    Торрент-трекер NNM-Club -> Коллекции / *логии -> Зарубежное кино (коллекции / *логии) Часовой пояс: GMT + 3
Страница 1 из 1