Классический форум-трекер
canvas not supported
Нас вместе: 4 094 045

Атлантида: Затерянный мир / Atlantis: The Lost Empire (2001) BDRip [H.264/720р-LQ]


 
 
RSS
Начать новую тему   Ответить на тему    Торрент-трекер NNM-Club -> Мультфильмы -> Зарубежные Мультфильмы для детей
Автор Сообщение
denver7979 ®
Зам. Куратора Детского.
Модератор Видео.
RG Всё лучшее - детям!
 
Стаж: 9 лет 2 мес.
Сообщений: 8134
Ratio: 551,679
Раздал: 37,81 TB
Поблагодарили: 327436
100%
Откуда: Земля
ussr.gif
Атлантида: Затерянный мир / Atlantis: The Lost Empire (2001) BDRip [H.264/720р-LQ]
Год выпуска: 2001
Жанр: Рисованная анимация, Детский, Приключения

Вид субтитров: Вшитые отключаемые
Язык субтитров: Русский, Английский

Режиссер: Гари Труздейл, Кирк Уайз
Персонажи: Майкл Дж. Фокс, Кори Бертон, Клаудия Кристиан, Джеймс Гарнер, Джон Махони, Фил Моррис, Леонард Нимой, Дон Новелло, Жаклин Обрадорс, Флоренс Стэнли

Описание фильма:
Атлантида… Мечтою найти легендарный затонувший в пучинах океана остров грезили многие смельчаки. Но только юному картографу Майло Тэтчу повезло: в 1914 году в его руки попал таинственный дневник, указывающий путь к Затерянной империи. И вот уже самая могучая подводная лодка в мире под командованием неустрашимого капитана Рурка выходит в открытый океан. Майло и его спутников ждет множество незабываемых приключений, превосходящих все похождения капитана Немо: схватка с морским чудовищем, древние загадки, буйство стихий, мистические силы и даже встреча с цивилизацией атлантов! И это лишь малая толика того, что ждет героев на их пути к тайнам великой Атлантиды.



Дата мировой премьеры: 3 июня 2001
Дата российской премьеры: 20 декабря 2001, «Каскад»
Дата выхода DVD/Blu-Ray релиза: 26 апреля 2011, «Уолт Дисней Компани СНГ»

Продолжительность: 01:35:44
Качество видео: BDRip

Видео: AVC, 1280x544 (2.35:1), 23.976 fps, 2 381 Kbps (0.143 bit/pixel)
Аудио #1: AC-3, 48.0 KHz, 6 ch, 384 Kbps, CBR Русский, Дублированный
Аудио #2: DTS, 48.0 KHz, 6 ch, 755 Kbps, CBR Русский, Многоголосый закадровый
Аудио #3: DTS, 48.0 KHz, 6 ch, 755 Kbps, CBR Русский, Авторский одноголосый (Визгунов)
Аудио #4: AC-3, 48.0 KHz, 2 ch, 192 Kbps, CBR Украинский, Дублированный
Видео
Идентификатор : 1
Формат : AVC
Формат/Информация : Advanced Video Codec
Профиль формата : High@L4.1
Параметр CABAC формата : Да
Параметр ReFrames формата : 12 кадров
Идентификатор кодека : V_MPEG4/ISO/AVC
Продолжительность : 1 ч. 35 м.
Битрейт : 2354 Кбит/сек
Ширина : 1280 пикселей
Высота : 544 пикселя
Соотношение сторон : 2,35:1
Режим частоты кадров : Постоянный
Частота кадров : 23,976 кадра/сек
Цветовое пространство : YUV
Субдискретизация насыщенности : 4:2:0
Битовая глубина : 8 бит
Тип развёртки : Прогрессивная
Бит/(Пиксели*Кадры) : 0.141
Размер потока : 1,57 Гбайт (52%)
Заголовок : Atlantis: The Lost Empire
Библиотека кодирования : x264 core 133 r2334 a3ac64b
Настройки программы : cabac=1 / ref=12 / deblock=1:-1:-1 / analyse=0x3:0x133 / me=tesa / subme=11 / psy=1 / psy_rd=0.50:0.00 / mixed_ref=1 / me_range=24 / chroma_me=1 / trellis=2 / 8x8dct=1 / cqm=0 / deadzone=21,11 / fast_pskip=0 / chroma_qp_offset=-2 / threads=6 / lookahead_threads=1 / sliced_threads=0 / nr=0 / decimate=1 / interlaced=0 / bluray_compat=0 / constrained_intra=0 / bframes=5 / b_pyramid=2 / b_adapt=2 / b_bias=0 / direct=3 / weightb=1 / open_gop=0 / weightp=2 / keyint=240 / keyint_min=24 / scenecut=40 / intra_refresh=0 / rc_lookahead=120 / rc=crf / mbtree=1 / crf=16.0 / qcomp=0.60 / qpmin=0 / qpmax=69 / qpstep=8 / ip_ratio=1.67 / aq=1:0.70
Язык : Russian
Default : Да
Forced : Нет

Аудио #1
Идентификатор : 2
Формат : AC-3
Формат/Информация : Audio Coding 3
Расширение режима : CM (complete main)
Параметр Endianness формата : Big
Идентификатор кодека : A_AC3
Продолжительность : 1 ч. 35 м.
Вид битрейта : Постоянный
Битрейт : 384 Кбит/сек
Каналы : 6 каналов
Расположение каналов : Front: L C R, Side: L R, LFE
Частота : 48,0 КГц
Битовая глубина : 16 бит
Метод сжатия : С потерями
Размер потока : 263 Мбайт (8%)
Заголовок : AC3, 6ch, 384 Kbps (Дубляж) |R5|
Язык : Russian
Default : Да
Forced : Нет

Аудио #2
Идентификатор : 3
Формат : DTS
Формат/Информация : Digital Theater Systems
Режим : 16
Параметр Endianness формата : Big
Идентификатор кодека : A_DTS
Продолжительность : 1 ч. 35 м.
Вид битрейта : Постоянный
Битрейт : 768 Кбит/сек
Каналы : 6 каналов
Расположение каналов : Front: L C R, Side: L R, LFE
Частота : 48,0 КГц
Битовая глубина : 24 бит
Метод сжатия : С потерями
Размер потока : 526 Мбайт (17%)
Заголовок : DTS, 6ch, 768 Kbps (MVO) |С.Р.И.|
Язык : Russian
Default : Нет
Forced : Нет

Аудио #3
Идентификатор : 4
Формат : DTS
Формат/Информация : Digital Theater Systems
Режим : 16
Параметр Endianness формата : Big
Идентификатор кодека : A_DTS
Продолжительность : 1 ч. 35 м.
Вид битрейта : Постоянный
Битрейт : 768 Кбит/сек
Каналы : 6 каналов
Расположение каналов : Front: L C R, Side: L R, LFE
Частота : 48,0 КГц
Битовая глубина : 24 бит
Метод сжатия : С потерями
Размер потока : 526 Мбайт (17%)
Заголовок : DTS, 6ch, 768 Kbps (AVO) |С.Визгунов|
Язык : Russian
Default : Нет
Forced : Нет

Аудио #4
Идентификатор : 5
Формат : AC-3
Формат/Информация : Audio Coding 3
Расширение режима : CM (complete main)
Параметр Endianness формата : Big
Идентификатор кодека : A_AC3
Продолжительность : 1 ч. 35 м.
Вид битрейта : Постоянный
Битрейт : 192 Кбит/сек
Каналы : 2 канала
Расположение каналов : Front: L R
Частота : 48,0 КГц
Битовая глубина : 16 бит
Метод сжатия : С потерями
Размер потока : 131 Мбайт (4%)
Заголовок : AC3, 2ch, 192 Kbps (Дубляж) |Disney Channel|
Язык : Ukrainian
Default : Нет
Forced : Нет

Текст #1
Идентификатор : 6
Формат : ASS
Идентификатор кодека : S_TEXT/ASS
Идентификатор кодека/Информация : Advanced Sub Station Alpha
Метод сжатия : Без потерь
Заголовок : [надписи и пр.]
Язык : Russian
Default : Да
Forced : Нет

Текст #2
Идентификатор : 7
Формат : ASS
Идентификатор кодека : S_TEXT/ASS
Идентификатор кодека/Информация : Advanced Sub Station Alpha
Метод сжатия : Без потерь
Заголовок : [полный]
Язык : Russian
Default : Нет
Forced : Нет

Текст #3
Идентификатор : 8
Формат : ASS
Идентификатор кодека : S_TEXT/ASS
Идентификатор кодека/Информация : Advanced Sub Station Alpha
Метод сжатия : Без потерь
Заголовок : [SDH]
Язык : Russian
Default : Нет
Forced : Нет

Текст #4
Идентификатор : 9
Формат : UTF-8
Идентификатор кодека : S_TEXT/UTF8
Идентификатор кодека/Информация : UTF-8 Plain Text
Заголовок : [SDH]
Язык : English
Default : Нет
Forced : Нет

Меню
00:00:00.000 : en:Prologue
00:02:30.818 : en:Milo's Presentation
00:07:55.100 : en:А Most Intriguing Proposition
00:13:42.531 : en:The Expedition Begins
00:18:47.126 : en:The Lair Of The Leviathan
00:26:25.126 : en:Convoy
00:31:32.808 : en:New Friends
00:36:16.717 : en:Fire
00:40:53.285 : en:Welcome To The City Of Atlantis
00:46:56.231 : en:Questions
00:53:53.356 : en:The Missing Page
00:59:41.120 : en:The Heart Of Atlantis
01:06:22.229 : en:A Change Of Heart
01:09:40.176 : en:"Save Atlantis, Save My Daughter"
01:13:09.344 : en:The Right Thing To Do
01:19:43.779 : en:Saving Atlantis
01:25:10.773 : en:Proof
01:28:02.569 : en:A Place Among Kings
01:29:27.029 : en:End Credits
В фильме допущен ляп: жемчужины на браслете Киды меняют свой цвет на противоположный (розовые — на сиреневый и наоборот).
Скриншоты:




Все релизы мультфильма на NNM-club

Время раздачи: с 11:00 до 01:00
[NNM-Club.me]_Atlantis.The Lost Empire.H.264.720r-LQ.mkv.torrent
 Торрент: Платиновая раздача  Зарегистрирован
 
Скачать


Примагнититься
 Зарегистрирован:   27 Авг 2013 19:59:31
 Размер:   3,05 GB  (
 Рейтинг:   4,9 (Голосов: 67)
 Поблагодарили:   313
 Проверка:   Оформление проверено модератором 27 Авг 2013 21:03:53
Как cкачать  ·  Как раздать  ·  Правильно оформить  ·  Поднять ратио!  
Shkiper3
Стаж: 9 лет 1 мес.
Сообщений: 335
Ratio: 32,155
Поблагодарили: 911
100%
algeria.gif
Спасибо!!!
Daivan
Стаж: 4 года 5 мес.
Сообщений: 5
Ratio: 474,954
100%
Классный мульт!
Показать сообщения:   
Начать новую тему   Ответить на тему    Торрент-трекер NNM-Club -> Мультфильмы -> Зарубежные Мультфильмы для детей Часовой пояс: GMT + 3
Страница 1 из 1