Классический форум-трекер
canvas not supported
Нас вместе: 4 136 149

Kara Grainger - Shiver & Sigh (2013) [FLAC|Lossless]<Blues Rock>


 
 
RSS
Начать новую тему   Ответить на тему    Торрент-трекер NNM-Club -> Jazz, Blues, Soul -> Blues, Soul (Lossless)
Автор Сообщение
PlaNed ®
Стаж: 8 лет 9 мес.
Сообщений: 1359
Ratio: 1016.431
Поблагодарили: 70070
25.88%
Откуда: The Net!
bulgaria.gif
Kara Grainger - Shiver & Sigh (2013)
Год: 2013
Жанр: Blues Rock
Издатель: Electro Groove Records
Номер по каталогу: EGRCd 514
Страна изготовитель:

Продолжительность: 00:43:24

Кодек: FLAC | Битрейт: Lossless
Источник: Web

Треклист:

01. Kara Grainger : Little Pack of Lies/ [04:27]
02. Kevin Bowe : Shiver & Sigh [04:22]
03. Kara Grainger : Lost In You [04:10]
04. Kara Grainger & Bruce McCabe : Shut Down [03:38]
05. Kara Grainger : I'm Not Ready [03:32]
06. Bruce McCabe : No Way You Can Hurt Me Now [03:44]
07. Mike Zito : Holding Out For Love [04:06]
08. Robert Johnson : C'mon In My Kitchen [03:51]
09. Kara Grainger : You're the One [03:25]
10. Al Jackson, Jr. & Timothy Matthews : Breaking Up Somebody's Home [04:12]
11. Wayne Perkins : Overdue For the Blues[03:52]

Personnel:
Kara Grainger: vocals, lead & slide guitar Hutch Hutchinson: bass
Mike Finnigan: keys
James Gadson: drums
Jimi Bott: drums
Kirk Fletcher: rhythm guitar
Josh Sklair: rhythm guitar
Mitch Grainger: harmonica
Lenny Castro: percussion

The Pacific Coast Horns:
Paulie Cerra: saxophone & horn arrangements Paul Litteral: trumpet
George Stanford: trombone
Код:

Exact Audio Copy V1.0 beta 3 from 29. August 2011

EAC extraction logfile from 22. August 2013, 19:58

Kara Grainger / Shiver & Sigh

Used drive  : PLDS    DVD+-RW DL-8A4SH   Adapter: 1  ID: 0

Read mode               : Secure
Utilize accurate stream : Yes
Defeat audio cache      : Yes
Make use of C2 pointers : No

Read offset correction                      : 6
Overread into Lead-In and Lead-Out          : No
Fill up missing offset samples with silence : Yes
Delete leading and trailing silent blocks   : No
Null samples used in CRC calculations       : Yes
Used interface                              : Native Win32 interface for Win NT & 2000

Used output format              : User Defined Encoder
Selected bitrate                : 1024 kBit/s
Quality                         : High
Add ID3 tag                     : No
Command line compressor         : C:\Program Files (x86)\Exact Audio Copy\FLAC\FLAC.EXE
Additional command line options : -6 -V -T "ARTIST=%artist%" -T "TITLE=%title%" -T "ALBUM=%albumtitle%" -T "DATE=%year%" -T "TRACKNUMBER=%tracknr%" -T "GENRE=%genre%" -T "COMMENT=%comment%" -T "BAND=%albuminterpret%" -T "ALBUMARTIST=%albuminterpret%" -T "COMPOSER=%composer%" %haslyrics%--tag-from-file=LYRICS="%lyricsfile%"%haslyrics% -T "DISCNUMBER=%cdnumber%" -T "TOTALDISCS=%totalcds%" -T "TOTALTRACKS=%numtracks%" %hascover%--picture="%coverfile%"%hascover% %source% -o %dest%

TOC of the extracted CD

     Track |   Start  |  Length  | Start sector | End sector
    ---------------------------------------------------------
        1  |  0:00.00 |  4:27.56 |         0    |    20080
        2  |  4:27.56 |  4:22.08 |     20081    |    39738
        3  |  8:49.64 |  4:10.63 |     39739    |    58551
        4  | 13:00.52 |  3:37.74 |     58552    |    74900
        5  | 16:38.51 |  3:32.21 |     74901    |    90821
        6  | 20:10.72 |  3:44.14 |     90822    |   107635
        7  | 23:55.11 |  4:06.35 |    107636    |   126120
        8  | 28:01.46 |  3:51.06 |    126121    |   143451
        9  | 31:52.52 |  3:25.36 |    143452    |   158862
       10  | 35:18.13 |  4:12.64 |    158863    |   177826
       11  | 39:31.02 |  3:52.65 |    177827    |   195291

Range status and errors

Selected range

     Filename C:\Users\ecwashere\Desktop\Kara Grainger - Shiver & Sigh.wav

     Peak level 98.8 %
     Extraction speed 4.0 X
     Range quality 99.9 %
     Copy CRC 7D72A69E
     Copy OK

No errors occurred

AccurateRip summary

Track  1  accurately ripped (confidence 1)  [6376460E]  (AR v1)
Track  2  accurately ripped (confidence 1)  [DCC83300]  (AR v1)
Track  3  accurately ripped (confidence 1)  [224936A5]  (AR v1)
Track  4  accurately ripped (confidence 1)  [59373CC2]  (AR v1)
Track  5  accurately ripped (confidence 1)  [FA1E4002]  (AR v1)
Track  6  accurately ripped (confidence 1)  [2B0A5C76]  (AR v1)
Track  7  accurately ripped (confidence 1)  [239B9FAB]  (AR v1)
Track  8  accurately ripped (confidence 1)  [3EB78074]  (AR v1)
Track  9  accurately ripped (confidence 1)  [9717E10D]  (AR v1)
Track 10  accurately ripped (confidence 1)  [4A54D6EF]  (AR v1)
Track 11  accurately ripped (confidence 1)  [6B16C287]  (AR v1)

All tracks accurately ripped

End of status report
Код:

-----------------------

DON'T MODIFY THIS FILE

-----------------------

PERFORMER: auCDtect Task Manager, ver. 1.6.0 RC1 build 1.6.0.1
Copyright (c) 2008-2010 y-soft. All rights reserved
http://y-soft.org

ANALYZER: auCDtect: CD records authenticity detector, version 0.8.2
Copyright (c) 2004 Oleg Berngardt. All rights reserved.
Copyright (c) 2004 Alexander Djourik. All rights reserved.

FILE: (11) [Kara Grainger] Overdue for the Blues.flac
  Size: 18255156 Hash: E040268886BE87FF41C3203943A0AD1B Accuracy: -m0
  Conclusion: CDDA 100%
  Signature: C9963992181FB4732D938CE390D3864058AE8C2E
FILE: (10) [Kara Grainger] Breaking Up Somebody's Home.flac
  Size: 23748772 Hash: 292AB7A83FDD8CF75153A877A5124295 Accuracy: -m0
  Conclusion: CDDA 100%
  Signature: 8937757EF0C2437864CA91BA2341AC29BDAFE84D
FILE: (09) [Kara Grainger] You're The One.flac
  Size: 23291127 Hash: A510B7328620F395DB01C282E167E67A Accuracy: -m0
  Conclusion: CDDA 100%
  Signature: 81C8B24CACFB58A7CA62627C7389F5703051C900
FILE: (08) [Kara Grainger] C'mon In My Kitchen.flac
  Size: 25230669 Hash: 81D827F1300BDB1462946288D309BB8E Accuracy: -m0
  Conclusion: CDDA 100%
  Signature: 35FD733DEBEE1726BEED29FB685F531E266A1EF4
FILE: (07) [Kara Grainger] Holding Out For Love.flac
  Size: 26048788 Hash: 769A54C096F3DE30052116AAD5DEF68A Accuracy: -m0
  Conclusion: CDDA 100%
  Signature: B53262ACBFE599841E1CA3564421CE205666BA0A
FILE: (06) [Kara Grainger] No Way You Can Hurt Me Now.flac
  Size: 25683248 Hash: C9EA5D9FDA41AD1E9868379436ABB514 Accuracy: -m0
  Conclusion: CDDA 99%
  Signature: 3FFA4D68DC806D389A1CF2CD6C1201A48F3E1F46
FILE: (05) [Kara Grainger] I'm Not Ready.flac
  Size: 18068473 Hash: 39ED8CB62BBC4BE66F2687E8D0A61BD5 Accuracy: -m0
  Conclusion: CDDA 100%
  Signature: 85A86341E99F397E1112EAEB5DC90EE6D8F3CC7F
FILE: (04) [Kara Grainger] Shut Down.flac
  Size: 21885654 Hash: 795FFBDD49440E6E7E4E5A3151AA4B3D Accuracy: -m0
  Conclusion: CDDA 100%
  Signature: 6105B192E72192A81A8280305B24B5E31A6D8071
FILE: (03) [Kara Grainger] Lost in You.flac
  Size: 26478981 Hash: DA76276E4648B1E766CF25E177A74583 Accuracy: -m0
  Conclusion: CDDA 100%
  Signature: A081A3E17821F3560F0AB8116C5130B9F7A8D6AA
FILE: (02) [Kara Grainger] Shiver & Sigh.flac
  Size: 28113617 Hash: A94508C2C1D43AF048A3250BF2508AC8 Accuracy: -m0
  Conclusion: CDDA 100%
  Signature: 0EA9F31E0E429CE6A75BA23A736BB6552992FA7D
FILE: (01) [Kara Grainger] Little Pack of Lies.flac
  Size: 29508908 Hash: FD317EDC4061FBC6149270982577BC3A Accuracy: -m0
  Conclusion: CDDA 100%
  Signature: 2BCF5C6A0D99C668974FA9FB59414B520166FFEF
Время раздачи: 24/7
[NNM-Club.me]_Kara Grainger - Shiver & Sigh (2013).torrent
 Торрент: Платиновая раздача  Зарегистрирован
 
Скачать


Примагнититься
 Зарегистрирован:   27 Авг 2013 22:45:12
 Размер:   255 MB  (
 Рейтинг:   4.4 (Голосов: 10)
 Поблагодарили:   69
 Проверка:   Оформление проверено модератором 28 Авг 2013 03:26:23
Как cкачать  ·  Как раздать  ·  Правильно оформить  ·  Поднять ратио!  
Показать сообщения:   
Начать новую тему   Ответить на тему    Торрент-трекер NNM-Club -> Jazz, Blues, Soul -> Blues, Soul (Lossless) Часовой пояс: GMT + 3
Страница 1 из 1