Классический форум-трекер
canvas not supported
Нас вместе: 4 093 793

Сезон лохов / Sezon na leszcza (2001) DVDRip


 
 
RSS
Начать новую тему   Ответить на тему    Торрент-трекер NNM-Club -> Зарубежное кино -> Зарубежные Фильмы (HD*Rip/LQ, DVDRip, SATRip, VHSRip)
Автор Сообщение
SKVSM ®
Покровитель талантов
Uploader 100+
 
Стаж: 9 лет 4 мес.
Сообщений: 1083
Ratio: 297,919
Поблагодарили: 21434
100%
nnm-club.gif
Сезон лохов / Sezon na leszcza (2001) DVDRip
Год выпуска: 2001
Жанр: Драма, Криминал, Детектив
Производство: Польша
Описание фильма:
В фильме две сюжетные линии, которые пересекаются только в финале. Первая связана с бандой грабителей, чей налет на банк закончился фиаско. После гибели главаря остаются двое – молодые, неопытные и смертельно напуганные брат с сестрой. В угнанной ими машине оказывается ребенок. Так грабители вдобавок становятся похитителями… Вторая линия связана с полицейским дорожно-патрульной службы, от которого сбежала жена. В поисках изменницы он выходит на ее любовника-бандита. Пока задержанного допрашивают в участке, полицейский отправляется, как это водится, отловить на дороге лоха и заработать на пиво. Он останавливает именно ту машину, в которой находятся брат и сестра...
Режиссер: Богуслав Линда
Актеры: Анна Пржыбыльска, Гэбриел Флешар, Богуслав Линда, Кшиштоф Банашик, Гржегорц Борек, Мариан Дзендзель, Роберт Гонера, Аркадиуш Якубик, Иоанна Йедрежек, Беата Кавка, Дариуш Кордек, Эдита Ольшувка, Илона Островска, Павель Вильчак
Продолжительность: 01:27:10
Качество видео: DVDRip
Перевод: Многоголосый закадровый

Дата мировой премьеры: 26 января 2001
Видеокодек: DivX5
Битрейт видео: ~1850 Кбит/с
Размер кадра: 672 x 336
Аудио: AC3, 6 ch, ~ 384 Кбит/с
Сэмпл
Код: выделить все
General
Complete name                    : D:\Sezon.lohov.2000.DivX.DVDRip.avi
Format                           : AVI
Format/Info                      : Audio Video Interleave
File size                        : 1.37 GiB
Duration                         : 1h 27mn
Overall bit rate                 : 2 244 Kbps
Writing application              : VirtualDubMod 1.5.10.2 (build 2542/release)
Writing library                  : VirtualDubMod build 2542/release

Video
ID                               : 0
Format                           : MPEG-4 Visual
Format settings, BVOP            : 3
Format settings, QPel            : No
Format settings, GMC             : No warppoints
Format settings, Matrix          : Default (H.263)
Muxing mode                      : Packed bitstream
Codec ID                         : DX50
Codec ID/Hint                    : DivX 5
Duration                         : 1h 27mn
Bit rate                         : 1 850 Kbps
Width                            : 672 pixels
Height                           : 336 pixels
Display aspect ratio             : 2.000
Frame rate                       : 25.000 fps
Color space                      : YUV
Chroma subsampling               : 4:2:0
Bit depth                        : 8 bits
Scan type                        : Progressive
Compression mode                 : Lossy
Bits/(Pixel*Frame)               : 0.328
Stream size                      : 1.13 GiB (82%)
Writing library                  : DivX 6.8.2 (UTC 2008-05-17)

Audio
ID                               : 1
Format                           : AC-3
Format/Info                      : Audio Coding 3
Mode extension                   : CM (complete main)
Codec ID                         : 2000
Duration                         : 1h 27mn
Bit rate mode                    : Constant
Bit rate                         : 384 Kbps
Channel(s)                       : 6 channels
Channel positions                : Front: L C R, Side: L R, LFE
Sampling rate                    : 48.0 KHz
Bit depth                        : 16 bits
Compression mode                 : Lossy
Stream size                      : 239 MiB (17%)
Alignment                        : Aligned on interleaves
Interleave, duration             : 40 ms (1.00 video frame)
Interleave, preload duration     : 512 ms

Скриншоты:



Время раздачи: 24/7 - круглосуточно


Скачать Сезон лохов / Sezon na leszcza (2001) DVD5
[NNM-Club.me]_Sezon.lohov.2000.DivX.DVDRip.avi.torrent
 Торрент: Платиновая раздача  Зарегистрирован
 
Скачать


Примагнититься
 Зарегистрирован:   31 Авг 2013 14:10:16
 Размер:   1,37 GB  (
 Рейтинг:   4,8 (Голосов: 22)
 Поблагодарили:   101
 Проверка:   Оформление проверено модератором 01 Сен 2013 13:20:12
Как cкачать  ·  Как раздать  ·  Правильно оформить  ·  Поднять ратио!  
kalt12
Uploader 100+
Стаж: 7 лет 3 мес.
Сообщений: 3757
Ratio: 161,188
Раздал: 196,8 TB
100%
russia.gif
Back in... =) Спасибо! :клево:
SKVSM ®
Покровитель талантов
Uploader 100+
 
Стаж: 9 лет 4 мес.
Сообщений: 1083
Ratio: 297,919
Поблагодарили: 21434
100%
nnm-club.gif
kalt12 писал(а): Перейти к сообщению
Back in... =) Спасибо! :клево:

Пожалуйста! Приятного просмотра!
Показать сообщения:   
Начать новую тему   Ответить на тему    Торрент-трекер NNM-Club -> Зарубежное кино -> Зарубежные Фильмы (HD*Rip/LQ, DVDRip, SATRip, VHSRip) Часовой пояс: GMT + 3
Страница 1 из 1