Классический форум-трекер
canvas not supported
Нас вместе: 4 101 296

Mondaiji-tachi ga Isekai kara Kuru Sou Desu yo? / Mondaiji / Проблемные дети из другого мира [2013, TV, 10 ep + OVA] BDRip Hi10p 720p Raw+Rus


 
 
RSS
Начать новую тему   Ответить на тему    Торрент-трекер NNM-Club -> Аниме с озвучкой -> Аниме с озвучкой (HD)
Автор Сообщение
Ampho_DnB ®
RG Аниме
Uploader 100+
 
Стаж: 8 лет 2 мес.
Сообщений: 3824
Ratio: 359,018
Поблагодарили: 88469
100%
Откуда: Душанбе
roody.gif
Mondaiji-tachi ga Isekai kara Kuru Sou Desu yo? / Mondaiji / Problem Children Are Coming from Another World, Aren't They? / Проблемные дети из другого мира
Жанр: приключения, комедия, фэнтези
Тип: TV-сериал
Серии: 10 эпизодов и ова по 25 минут
Выпуск: c 12.01.2013 по 16.03.2013
Автор: Тацуноко Таро
Режиссер: Кусакава Кэйдзё
Студия: Barcelona
Информационные ссылки: AniDB || World Art || MAL || ANN
Релиз подготовлен группой AniLibria
  • Перевод: LeDi-MaHo Team
  • Озвучивание: Shoker & Nuriko
  • Тайминг и работа со звуком: Agito

Описание:
Нет смысла спорить, что «детям-индиго» скучно среди обычных людей. Но есть иные миры, к примеру, Город-Сад, где живут боги и демоны, маги и вампиры, зверолюди и оборотни, и не просто живут, а постоянно разбавляют прозу жизни азартными дуэлями и играми «на интерес». Там нет места слабакам, но найдется дело одаренным ребятам, которые всегда готовы к бою – чтобы развеяться, стать сильнее или обрести новых друзей! Именно таковы ироничный Идзаёи, который сам не ведает пределы своих сил, умница-принцесса Асука, владеющая Словом, или тихая с виду Ё, что может подружиться с любым животным, а затем использовать его способности. Такие нигде не пропадут!

Вот только герои, кстати, попавшие в Сад из трех параллельных миров, вскоре узнали, что милая девушка по имени Черный Кролик призвала их не ради прогулки, а в отчаянной попытке спасти свой клан, который практически уничтожен местными хозяевами – Лордами-Демонами. К счастью, среди Лордов нет единства – кому-то пришельцы безразличны, а кое-кому способные новички даже понравились. Осмотревшись, ребята поняли правила игры, выразили уважение кому следует – и веселье понеслось, да так, что многие боги и демоны отправились либо в санаторий, либо на вечный отдых. Пускай у обновленного клана пока что нет имени, зато есть надежда когда-нибудь запечатлеть свой герб прямо в небесах!
© Hollow, World Art
Качество: BDRip | Формат: MKV | Энкод: Winter
Видео: x264 (10 bit) 1280x720, ~3100 kbps, 23.976 fps
Аудио: Vorbis, 256 kbps, 48.0 kHz, 2 ch
Аудио: AC-3, 192 kbps, 48.0 kHz, 2 ch
Субтитры: ASS, Встроенные, Полные | Надписи «LeDi-MaHo Team»

Переводчик/Перевод песен: MantisFL | Редактор/Оформление: Holydarkness
01. Problem Children Are Coming from Another World, Aren`t They?
02. Seems Like a Crazy Loli Clad in Japanese Clothing?
03. Sounds Like We`re Doing All Sorts of Stuff in the Bath Together?
04. It Seems Some Pervert Is After Black Rabbit?
05. The Oath Seems To Be Beyond The Stars
06. Looks Like the Problem Children Are Participating in a Festival?
07. Someone Might Get All Kissy with Asuka in the Dark?
08. It Seems That a Great Disaster Will Come With the Playing of a Flute?
09. It Seems That the Smell of Death That Brings About Disaster Is Growing Throughout the Town?
10. It Seems That the Problem Children Prove Who`s on Top!

OVA. Problem Children are Coming from Another World, Aren't They?
Код:
General
Unique ID                   : 185439298405347153388625859328846948947 (0x8B824F4CDB82BF16A64DED22E3796A53)
Complete name               : Mondaiji [BD] [720p]\Mondaiji-tachi ga Isekai kara Kuru Sou Desu yo 01 [BDrip 1280x720 x264 Vorbis].mkv
Format                      : Matroska
Format version              : Version 4 / Version 2
File size                   : 649 MiB
Duration                    : 23mn 42s
Overall bit rate mode       : Variable
Overall bit rate            : 3 831 Kbps
Encoded date                : UTC 2013-08-30 05:18:31
Writing application         : mkvmerge v6.0.0 ('Coming Up For Air') built on Jan 20 2013 09:52:00
Writing library             : libebml v1.3.0 + libmatroska v1.4.0

Video
ID                          : 1
Format                      : AVC
Format/Info                 : Advanced Video Codec
Format profile              : High 10@L4.1
Format settings, CABAC      : Yes
Format settings, ReFrames   : 9 frames
Codec ID                    : V_MPEG4/ISO/AVC
Duration                    : 23mn 42s
Bit rate                    : 3 307 Kbps
Width                       : 1 280 pixels
Height                      : 720 pixels
Display aspect ratio        : 16:9
Frame rate mode             : Constant
Frame rate                  : 23.976 fps
Color space                 : YUV
Chroma subsampling          : 4:2:0
Bit depth                   : 10 bits
Scan type                   : Progressive
Bits/(Pixel*Frame)          : 0.150
Stream size                 : 561 MiB (86%)
Writing library             : x264 core 125 r2200 999b753
Encoding settings           : cabac=1 / ref=9 / deblock=1:-2:-2 / analyse=0x3:0x133 / me=umh / subme=9 / psy=1 / psy_rd=0.90:0.00 / mixed_ref=1 / me_range=24 / chroma_me=1 / trellis=2 / 8x8dct=1 / cqm=0 / deadzone=21,11 / fast_pskip=1 / chroma_qp_offset=-2 / threads=6 / lookahead_threads=1 / sliced_threads=0 / nr=0 / decimate=0 / interlaced=0 / bluray_compat=0 / constrained_intra=0 / bframes=8 / b_pyramid=2 / b_adapt=2 / b_bias=0 / direct=1 / weightb=1 / open_gop=0 / weightp=2 / keyint=250 / keyint_min=23 / scenecut=40 / intra_refresh=0 / rc=crf / mbtree=0 / crf=15.7 / qcomp=0.70 / qpmin=9 / qpmax=40 / qpstep=4 / ip_ratio=1.40 / pb_ratio=1.30 / aq=1:0.90
Default                     : No
Forced                      : No

Audio #1
ID                          : 2
Format                      : AC-3
Format/Info                 : Audio Coding 3
Mode extension              : CM (complete main)
Format settings, Endianness : Big
Codec ID                    : A_AC3
Duration                    : 23mn 42s
Bit rate mode               : Constant
Bit rate                    : 192 Kbps
Channel(s)                  : 2 channels
Channel positions           : Front: L R
Sampling rate               : 48.0 KHz
Bit depth                   : 16 bits
Compression mode            : Lossy
Stream size                 : 32.5 MiB (5%)
Title                       : Rus
Language                    : Russian
Default                     : Yes
Forced                      : No

Audio #2
ID                          : 3
Format                      : Vorbis
Format settings, Floor      : 1
Codec ID                    : A_VORBIS
Duration                    : 23mn 42s
Bit rate mode               : Variable
Bit rate                    : 256 Kbps
Channel(s)                  : 2 channels
Sampling rate               : 48.0 KHz
Compression mode            : Lossy
Stream size                 : 43.4 MiB (7%)
Title                       : Original
Writing library             : libVorbis (Schaufenugget) (20101101 (Schaufenugget))
Language                    : Japanese
Default                     : No
Forced                      : No

Text #1
ID                          : 4
Format                      : ASS
Codec ID                    : S_TEXT/ASS
Codec ID/Info               : Advanced Sub Station Alpha
Compression mode            : Lossless
Title                       : Subs
Language                    : Russian
Default                     : No
Forced                      : No

Text #2
ID                          : 5
Format                      : ASS
Codec ID                    : S_TEXT/ASS
Codec ID/Info               : Advanced Sub Station Alpha
Compression mode            : Lossless
Title                       : Надписи
Language                    : Russian
Default                     : Yes
Forced                      : Yes
  • Выбор видео, перевода, озвучки, а также типа сборки материала осуществляется релизером и не подлежит обсуждению. Если вы считаете, что раздаваемый материал противоречит правилам раздела "Аниме", сообщите об этом одному из модераторов раздела.

  • В случае появления нового материала или же лучшего по качеству материала релизер оставляет за собой право обновить раздачу. В этом случае вам необходимо ознакомиться с изменениями (добавлениями) и перекачать торрент.

  • Данный релиз предназначен для просмотра на ПК. Воспроизведение на иных проигрывателях не гарантируется. Для просмотра рекомендуется Media Player Classic с установленным пакетом кодеков K-Lite.

  • Данный релиз содержит 10-битное видео (Hi10p). Для корректного воспроизведения обязательно используйте кодеки, поддерживающие 10-битное видео. Обсудить частные случаи проблем с воспроизведением и получить дополнительную информацию можно здесь.

  • Если у вас возникли проблемы с просмотром, не связанные с описанным выше, сообщите о них автору раздачи посредством сообщения в теме или ЛС Ampho_DnB.


Время раздачи: До первых сидов
[NNM-Club.me]_Mondaiji [BD] [720p].torrent
 Торрент: Платиновая раздача  Зарегистрирован
 
Скачать


Примагнититься
 Зарегистрирован:   26 Фев 2015 23:05:01
 Размер:   6,05 GB  (
 Рейтинг:   4,1 (Голосов: 31)
 Поблагодарили:   50
 Проверка:   Оформление проверено модератором 26 Фев 2015 23:20:11
Как cкачать  ·  Как раздать  ·  Правильно оформить  ·  Поднять ратио!  
Ampho_DnB ®
RG Аниме
Uploader 100+
 
Стаж: 8 лет 2 мес.
Сообщений: 3824
Ratio: 359,018
Поблагодарили: 88469
100%
Откуда: Душанбе
roody.gif
Торрент обновлен. Выбрана озвучка от AniLibria, соединены все файлы, добавлена OVA.
Показать сообщения:   
Начать новую тему   Ответить на тему    Торрент-трекер NNM-Club -> Аниме с озвучкой -> Аниме с озвучкой (HD) Часовой пояс: GMT + 3
Страница 1 из 1