Классический форум-трекер
canvas not supported
Нас вместе: 4 079 062

Интерны (Сезон №9, серии №1-16(165-180)) (2013) SATRip


Страницы:   Пред.  1, 2, 3, 4, 5 
 
RSS
Начать новую тему   Ответить на тему    Торрент-трекер NNM-Club -> Отечественные сериалы -> Интерны
Автор Сообщение
svlesin ®
Модератор Документалистики/TV
RG Releasers
Релизер 25000+ Uploader 300+
 
Стаж: 9 лет 10 мес.
Сообщений: 33782
Ratio: 1751,288
Поблагодарили: 3250291
100%
russia.gif
Интерны (2013) SATRip

Режиссер / Телекомпания: ТНТ
Русское название: Интерны
Год выпуска: 2013
Жанр: Комедия
Описание:
Главные герои ситкома – четыре интерна. Они все время попадают в идиотские ситуации, а их руководитель доктор Быков (Охлобыстин) с удовольствием за этим наблюдает. Доводить интернов до белого каления Быкову помогает друг доктор Купитман и мешает главврач больницы Анастасия Кисегач. Почти все сюжеты взяты из реальной врачебной практики. Роль доктора, который помимо своей воли становится руководителем практики у четырех оболтусов-интернов, играет Иван Охлобыстин. Священник, актер и сценарист. Учился во ВГИКе, работал режиссером на «Мосфильме», занимался журналистикой, политическим пиаром, сотрудничал с ведущими телеканалами. На его счету – более 30 ролей в кино и более 20 сценариев. Закончил семинарию. В 2001 году отец Иоанн был рукоположен в сан священника. Воспитывает шестерых детей. В ситкоме снимается впервые.
В ролях: Иван Охлобыстин, Вадим Демчог, Светлана Камынина, Александр Ильин мл., Кристина Асмус, Илья Глинников, Дмитрий Шаракоис
Режиссер: Максим Пежемский, Заур Болотаев
Продолжительность: Каждая серия х 00:25:00
Видеокодек: XviD
Битрейт видео: ~1495 kb/s
Размер кадра: 720 x 400
Качество видео: SATRip
Аудиокодек: MP3, 2ch.
Битрейт аудио: 192 kb/s
Формат : AVI
Формат/Информация : Audio Video Interleave
Размер файла : 288 Мбайт
Продолжительность : 24 м.
Общий поток : 1633 Кбит/сек
Программа кодирования : VirtualDubMod 1.5.10.2 (build 2540/release)
Библиотека кодирования : VirtualDub build 32507/release

Видео
Идентификатор : 0
Формат : MPEG-4 Visual
Профиль формата : Advanced Simple@L5
Параметр BVOP формата : 2
Параметр QPel формата : Нет
Параметр GMC формата : Без точки перехода
Параметр матрицы формата : Default (MPEG)
Идентификатор кодека : XVID
Идентификатор кодека/Подсказка : XviD
Продолжительность : 24 м.
Битрейт : 1495 Кбит/сек
Ширина : 720 пикселей
Высота : 400 пикселей
Соотношение сторон : 16:9
Частота кадров : 25,000 кадров/сек
Цветовое пространство : YUV
Субдискретизация насыщенности : 4:2:0
Битовая глубина : 8 бит
Тип развёртки : Прогрессивная
Метод сжатия : С потерями
Бит/(Пиксели*Кадры) : 0.208
Размер потока : 263 Мбайт (92%)
Библиотека кодирования : XviD 64

Аудио
Идентификатор : 1
Формат : MPEG Audio
Версия формата : Version 1
Профиль формата : Layer 3
Режим : Joint stereo
Расширение режима : MS Stereo
Идентификатор кодека : 55
Идентификатор кодека/Подсказка : MP3
Продолжительность : 24 м.
Вид битрейта : Постоянный
Битрейт : 128 Кбит/сек
Каналы : 2 канала
Частота : 48,0 КГц
Метод сжатия : С потерями
Размер потока : 22,5 Мбайт (8%)
Выравнивание : Соединение по промежуткам
Продолжительность промежутка : 40 мс. (1,00 видеокадр)
Время предзагрузки промежутка : 504 мс.
Библиотека кодирования : LAME3.90.3ЄЄЄЄЄЄЄЄЄЄ
Внимание! Раздача ведётся путём добавления новых серий; при каждом добавлении создаётся новый торрент.
Чтобы начать докачку новой серии, пользователям необходимо сделать следующее:
1. Остановить скачивание;
2. Удалить старый торрент у себя из клиента (старые серии удалять не надо);
3. Скачать новый торрент и запустить его у себя в клиенте вместо старого, при этом указать клиенту путь в старую папку куда и должно происходить скачивание новых серий. Ваш клиент при этом должен произвести хеширование (проверку) старой папки и будет докачивать только те серии, которых у вас ещё нет. Старые серии при этом не удаляются, а продолжают раздаваться! Eсли вы уже удалили старые серии, то предотвратить повторную закачку старых серий можно, отжав галочку в соответствующих местах при запуске нового торрента.
Скриншоты:


Время раздачи: 24/7. До первых 5 скачавших.
Интерны на NoNaMe Club
Rip by ВИТ555
[NNM-Club.me]_Internyi - 9 sezon (2013)_SATRip.torrent
 Торрент: Платиновая раздача  Зарегистрирован
 
Скачать


Примагнититься
 Зарегистрирован:   25 Сен 2013 15:44:17
 Размер:   4,46 GB  (
 Рейтинг:   4,7 (Голосов: 879)
 Поблагодарили:   3118
 Проверка:   Оформление проверено модератором 25 Сен 2013 17:40:41
Как cкачать  ·  Как раздать  ·  Правильно оформить  ·  Поднять ратио!  

_________________
Уважаемые пользователи Клуба! От меня релизов больше не будет. Может быть, буду поддерживать «Обновляемые раздачи». Спасибо всем, кто благодарил меня и говорил/нажимал «Спасибо»!
bayer_a
Стаж: 10 лет
Сообщений: 819
Ratio: 3,235
Поблагодарили: 427
100%
krevedko.png
monoton писал(а): Перейти к сообщению
наврядли.
закончился?

_________________
ReadyNAS NV+ [X-RAID] / Transmission 24/7
ajiekcej
Стаж: 8 лет 8 мес.
Сообщений: 2
Ratio: 1,096
Поблагодарили: 4
26.03%
russia.gif
чето нехера не качает,пишет ошибка торрента
lihacheff
Стаж: 12 лет 8 мес.
Сообщений: 28
Ratio: 50,794
Поблагодарили: 16
100%
Откуда: Russia
qatar.gif
судя по последней сериии (180), сериал закончился?
XLR250
Стаж: 8 лет 7 мес.
Сообщений: 69
Ratio: 9,395
Поблагодарили: 971
100%
kazakhstan.gif
хороший сериал. в последней серии вообще замутили.))) жаль что закрыли.
BiGSuN
Стаж: 12 лет 5 мес.
Сообщений: 203
Ratio: 4,68
Раздал: 2,633 TB
Поблагодарили: 1376
63.64%
russia.gif
Чё так плохо реклама вырезана, блин, не зомбоящик же.
Sevoran
Стаж: 8 лет
Сообщений: 22
Ratio: 31,584
100%
Откуда: Курск
ussr.gif
TLK812 писал(а): Перейти к сообщению
11-ая минута 173 серии. На каталке пациента везут головой вперед, хотя пациент скорее жив, чем мертв.
Все правильно, ногами вперед жмуров возят.
Мит
Стаж: 9 лет 6 мес.
Сообщений: 1
Ratio: 2,035
11.48%
ukraine.gif
С громкостью звука - это типа прикол такой?
AndroValk
Стаж: 6 лет 8 мес.
Сообщений: 4
Ratio: 1,035
100%
belarus.gif
мне одному кажется что в конце каждой серии обрезан сюжет???
складывается впечатление незавершенности............
foxfort
Стаж: 6 лет 7 мес.
Сообщений: 1
Ratio: 63,643
Раздал: 810 GB
4%
180 серия разрыв шаблона ) .
Qanat0z
Стаж: 6 лет 10 мес.
Сообщений: 90
Ratio: 1,597
100%
Откуда: Брест
netvibes писал(а): Перейти к сообщению
сериал закончился или будет продолжение?

Отснято уже дополнительно 100 серий. Так, что гарантировано будет 280. Но показывать планируют в январе или марте. Сочинская олимпиада может помешать показу в январе. Так, что нехилый такой прерывчик на полгода! :(
Показать сообщения:   
Начать новую тему   Ответить на тему    Торрент-трекер NNM-Club -> Отечественные сериалы -> Интерны Часовой пояс: GMT + 3
Страницы:   Пред.  1, 2, 3, 4, 5
Страница 5 из 5