Классический форум-трекер
canvas not supported
Нас вместе: 4 104 139

History Channel: Древние пришельцы. Сезон 5 / Ancient Aliens (2012) SATRip


 
 
RSS
Начать новую тему   Ответить на тему    Торрент-трекер NNM-Club -> Зарубежные TV-бренды -> History Channel
Автор Сообщение
svlesin ®
Модератор Документалистики/TV
RG Releasers
Релизер 25000+ Uploader 300+
 
Стаж: 10 лет 4 мес.
Сообщений: 33809
Ratio: 1833,449
Поблагодарили: 3253596
100%
russia.gif
History Channel: Древние пришельцы. Сезон 5 / Ancient Aliens (2012) SATRip
Режиссер / Телекомпания: History

Русское название: Древние пришельцы
Оригинальное название: Ancient Aliens
Год выпуска: 2012
Жанр: Документальный, паранормальный, уфология, мистика, альтернативная история, псевдоистория
Выпущено: США, Prometheus Entertainment, A&E Television Networks, LLC., History Channel

Описание:
Возможно ли, что разумные формы жизни посетили Землю тысячи лет назад, принеся с собой технологии кардинально повлиявшие на ход истории и развития человечества? Теория "древних пришельцев", опубликованная в 1968 году в бестселлере Эриха фон Деникена "Колесницы богов", пошатнула представления людей об общеизвестном прогрессе человечества. Древние пещерные рисунки странных существ, остатки взлетно-посадочных полос в Перу, индийские тексты, описывающие "летающие машины богов"... вот лишь некоторые необычные археологические артефакты на которые ссылается Деникен в качестве доказательств того, что "древние астронавты" были хорошо известны нашим предкам.

Режиссёр: Кевин Барнс, Дэвид Сильвер
Актёры: Уильям Джей Бернс, Линда Молтон Хоу, Роберт Клотуорти, Джордж Нури, Джонатан Янг, Луис Навия, Бэрри Доунинг, Эрих фон Дэникен, Майкл Кремо, Дэвид Чайлдресс

Перевод: Одноголосый закадровый
Продолжительность: 12 х ~ 00:42:00

Видеокодек: XVID
Битрейт видео: ~1900 kb/s
Размер кадра: 720 x 400
Качество видео: SATRip
Аудиокодек: AC-3, 2ch.
Битрейт аудио: 192 kb/s
01. Секреты Пирамид / Secrets of the Pyramids
02. Сокрытие фактов / Aliens and Cover-Ups
03. Электростанции пришельцев / Alien Power Plants
04. Пункт назначения - Орион / Destination Orion
05 Фактор Эйнштейна / The Einstein Factor
06. Тайны гробниц / Secrets of the Tombs
07. Пророки и предсказания / Prophets and Prophecies
08. Изучая линии Наски / Beyond Nazca
09. Странные похищения / Strange Abductions
10. Наследие Фон Даникена / The von Daniken Legacy
11. Боги Викингов / The Viking Gods
12. Монолиты / The Monoliths
Формат : AVI
Формат/Информация : Audio Video Interleave
Размер файла : 632 Мбайт
Продолжительность : 42 м.
Общий поток : 2101 Кбит/сек
Программа кодирования : VirtualDubMod 1.5.10.3 | www.virtualdub-fr.org || (build 2550/release)
Библиотека кодирования : VirtualDubMod build 2550/release

Видео
Идентификатор : 0
Формат : MPEG-4 Visual
Профиль формата : Advanced Simple@L5
Параметр BVOP формата : 2
Параметр QPel формата : Нет
Параметр GMC формата : Без точки перехода
Параметр матрицы формата : Default (H.263)
Идентификатор кодека : XVID
Идентификатор кодека/Подсказка : XviD
Продолжительность : 42 м.
Битрейт : 1900 Кбит/сек
Ширина : 720 пикселей
Высота : 400 пикселей
Соотношение сторон : 16:9
Частота кадров : 25,000 кадров/сек
Цветовое пространство : YUV
Субдискретизация насыщенности : 4:2:0
Битовая глубина : 8 бит
Тип развёртки : Прогрессивная
Метод сжатия : С потерями
Бит/(Пиксели*Кадры) : 0.264
Размер потока : 572 Мбайт (90%)
Библиотека кодирования : XviD 1.2.1 (UTC 2008-12-04)

Аудио
Идентификатор : 1
Формат : AC-3
Формат/Информация : Audio Coding 3
Расширение режима : CM (complete main)
Идентификатор кодека : 2000
Продолжительность : 42 м.
Вид битрейта : Постоянный
Битрейт : 192 Кбит/сек
Каналы : 2 канала
Расположение каналов : Front: L R
Частота : 48,0 КГц
Битовая глубина : 16 бит
Метод сжатия : С потерями
Размер потока : 57,8 Мбайт (9%)
Выравнивание : Разделение по промежуткам
Продолжительность промежутка : 40 мс. (1,00 видеокадр)
Время предзагрузки промежутка : 500 мс.
Скриншоты:

Время раздачи: 24/7. До первых 5 скачавших.
Rip by skorpionN
Древние пришельцы на NoNaMe Club
[NNM-Club.me]_Drevnie prishel'tsyi. Sezon 5 - Ancient Aliens (2012).torrent
 Торрент: Платиновая раздача  Зарегистрирован
 
Скачать


 Зарегистрирован:   05 Сен 2013 19:41:47
 Размер:   7,4 GB  (
 Рейтинг:   4,7 (Голосов: 48)
 Поблагодарили:   190
 Проверка:   Оформление проверено модератором 05 Сен 2013 19:42:11
Как cкачать  ·  Как раздать  ·  Правильно оформить  ·  Поднять ратио!  

_________________
Уважаемые пользователи Клуба! От меня релизов больше не будет. Может быть, буду поддерживать «Обновляемые раздачи». Спасибо всем, кто благодарил меня и говорил/нажимал «Спасибо»!
djtorrent
Стаж: 7 лет 1 мес.
Сообщений: 37
Ratio: 1,191
1.1%
Бред
sulinoleg
Стаж: 8 лет 6 мес.
Сообщений: 373
Ratio: 152,902
100%
Откуда: Из народа
russia.gif
Нравится.Спасибо за раздачу.

_________________
no comment
interseptorV

Online
Стаж: 8 лет 1 мес.
Сообщений: 21
Ratio: 2,748
100%
Смотрел четвертую и пятую серии, ну очень притянуто за уши. Всё в стиле "а что если то-то" и начинается поток домыслов на это предположение. Тоесть, если первоначальное предположение ошибочно, то серии просто нет.

Тема мне интересна, спасибо за раздачу.
MOPSS1955
Стаж: 7 лет 1 мес.
Сообщений: 2
Ratio: 9,486
100%
Не смотря на многие "бред" и "притянуто за уши" в этом цикле из пяти сезонов узнаешь о многих артефактах о которых раньше было и не слышно, и не видно - этим цикл очень интересен. Ну а предположения и гипотезы - имеют право быть. Автору благодарность.
veorel3000
Стаж: 3 года 6 мес.
Сообщений: 16
Ratio: 1,119
0%
На российской версии канала H2 в настоящее время идёт показ отсутствующих в русской озвучке серий "Древних пришельцев":
https://tv.yandex.ru/213/program/2283795
В связи с тем, что традиционно в нумерации сезонов именно этого проекта наблюдается путаница, в программе телеканала под "7 сезоном" транслируются на самом деле, например, серии сезона 10, а под вывеской "10 сезон" - свежевыпущенные серии 12-го, которые только что прошли в Америке.
На торрентах, начиная с 6 сезона, также наблюдается путаница. 6-й и 7-й сезоны скомпиллированы в т.н. 19-серийный "6 сезон" и т.д., и только с 11 сезона путаница была устранена. В связи с чем, окончательно выпали из внимания релизёров реальные сезоны 9-10 (наверное, потому что в эфире они идут под "вывеской" 7 или 8 сезона, и эти сезоны "якобы" давно озвучены, что на самом деле не так.
Источники актуальной информации по правильной разбивке на сезоны:
https://en.wikipedia.org/wiki/Ancient_Aliens
http://www.imdb.com/title/tt1643266/
http://www.history.com/shows/ancient-aliens

На этой неделе в эфире канала H2 (рус) серии "Бесследно исчезнувшие", "Пришельцы и Гражданская война", "Скрытые пирамиды", "Инопланетны заговор", "Загадки Сфинкса". Это серии 9-го сезона, но в программе заявлены как серии 7-го. В интернете серии отсутствуют...

Пожалуйста, у кого есть возможность и талант, запишите транслирующиеся серии!
Показать сообщения:   
Начать новую тему   Ответить на тему    Торрент-трекер NNM-Club -> Зарубежные TV-бренды -> History Channel Часовой пояс: GMT + 3
Страница 1 из 1