Классический форум-трекер
canvas not supported
Нас вместе: 4 095 158

Остаться в живых / Stay Alive (2006) DVDRip [Режиссёрская версия / Director's Cut]


 
 
RSS
Начать новую тему   Ответить на тему    Торрент-трекер NNM-Club -> Зарубежное кино -> Зарубежные Фильмы (HD*Rip/LQ, DVDRip, SATRip, VHSRip)
Автор Сообщение
fozzy412 ®
Стаж: 8 лет
Сообщений: 154
Ratio: 11,145
Поблагодарили: 2355
100%
Откуда: Донецк
Остаться в живых / Stay Alive (2006) DVDRip
Год выпуска: 2006
Жанр: Ужасы, Триллер

Описание фильма:
Группа подростков из Нью-Орлеана просто помешана на пугающей ролевой видео-игре — «Остаться в живых». Суть игры — разыгрывать леденящие душу истории из жизни таинственной аристократки, которая жила в 17 веке и носила прозвище «Кровавая графиня». Неожиданно один за другим подростки начинают погибать, причем убивают их тем же изощренным способом, что и их персонажей. Жестокий вымысел все теснее и теснее переплетается с реальностью… Ребятам нужно успеть победить порочную и беспощадную «Кровавую графиню». Им нужно остаться в живых…

Режиссер: Уильям Брент Белл
Актеры: Джон Фостер, Самира Армстронг, Фрэнки Муниз, Джимми Симпсон, Уенделл Пирс, Майло Вентимилья, София Буш

Продолжительность: 01:36:03
Качество видео: DVDRip
Перевод: Многоголосый закадровый
Оригинальная звуковая дорожка: Английская
Вид субтитров: Отдельным файлом
Язык субтитров: Русский



Дата мировой премьеры: 24.03.06
Дата выхода DVD релиза: 27.01.09

Видеокодек: Xvid
Битрейт видео: ~1719kbps
Размер кадра: 704x304
Аудио 1: AC3, 5.1, ~448 Kbps MVO
Аудио 2: AC3, 5.1, ~448 Kbps ENG / отдельно
Format/Info : Audio Video Interleave
File size : 1.46 GiB
Duration : 1h 36mn
Overall bit rate : 2 177 Kbps
Writing application : VirtualDubMod 1.5.10.2 (build 2540/release)
Writing library : VirtualDubMod build 2540/release

Video
ID : 0
Format : MPEG-4 Visual
Format profile : Advanced Simple@L5
Format settings, BVOP : 1
Format settings, QPel : No
Format settings, GMC : No warppoints
Format settings, Matrix : Default (MPEG)
Codec ID : DX50
Codec ID/Hint : DivX 5
Duration : 1h 36mn
Bit rate : 1 720 Kbps
Width : 704 pixels
Height : 304 pixels
Display aspect ratio : 2.35:1
Frame rate : 25.000 fps
Color space : YUV
Chroma subsampling : 4:2:0
Bit depth : 8 bits
Scan type : Progressive
Compression mode : Lossy
Bits/(Pixel*Frame) : 0.321
Stream size : 1.15 GiB (79%)
Writing library : XviD 65

Audio
ID : 1
Format : AC-3
Format/Info : Audio Coding 3
Mode extension : CM (complete main)
Codec ID : 2000
Duration : 1h 36mn
Bit rate mode : Constant
Bit rate : 448 Kbps
Channel(s) : 6 channels
Channel positions : Front: L C R, Side: L R, LFE
Sampling rate : 48.0 KHz
Bit depth : 16 bits
Compression mode : Lossy
Delay relative to video : 500ms
Stream size : 308 MiB (21%)
Alignment : Split accross interleaves
Interleave, duration : 40 ms (1.00 video frame)
Interleave, preload duration : 500 ms
Title : MVO

Время раздачи: Пн-Пт с 18:00 до 22:00, Сб-Вс с 09:00 до 23:30
[NNM-Club.me]_Ostat'sya v zhivyih fozzy412 nnm.torrent
 Торрент: Платиновая раздача  Зарегистрирован
 
Скачать


Примагнититься
 Зарегистрирован:   06 Сен 2013 00:09:16
 Размер:   1,76 GB  (
 Рейтинг:   4,7 (Голосов: 67)
 Поблагодарили:   194
 Проверка:   Оформление проверено модератором 07 Сен 2013 17:25:30
Как cкачать  ·  Как раздать  ·  Правильно оформить  ·  Поднять ратио!  
StasMih
Uploader 100+
Стаж: 8 лет 11 мес.
Сообщений: 93
Ratio: 608,933
100%
russia.gif
хороший кин, пересматривал несколько раз

_________________
Кто забывает уроки истории, обречен на их повторение! - Джордж Сантаяна
sovastalin
Стаж: 9 лет 8 мес.
Сообщений: 664
Ratio: 52,97
Поблагодарили: 2952
100%
Откуда: Одесса
ukraine.gif
Фильм отличный. Самое интересное, что он существует, как минимум, в трёх версиях-это те, что у меня есть. :) ТВ+ДВД+Режиссёрская. На каком-то форуме чел писал, что у него есть вариант на 2 с чем-то часа, но это, скорее всего, результат работы энтузиастов, собравших все вырезанные из разных вариаций эпизоды в один фильм.
Stan79
Стаж: 10 лет 5 мес.
Сообщений: 358
Ratio: 20,654
Поблагодарили: 1004
100%
russia.gif
Пересмотрю, хороший фильм. Удивлён, что рейтинг такой низкий
samantasweety
Стаж: 10 лет 10 мес.
Сообщений: 1530
Ratio: 57,732
Поблагодарили: 31
100%
Откуда: наша раша
ussr.gif
то же подтверждаю , фильм хороший , низкий рейтинг удивил !
да , смотрел тот , где графиню так и не почикрыжили , вобщем с никакой концовкой . другие более конкретные есть концовки ?
ka4ek92
Стаж: 9 лет 4 мес.
Сообщений: 784
Ratio: 2,736
100%
спасибо, прикольный был фильмец
Succous
Стаж: 7 лет 7 мес.
Сообщений: 315
Ratio: 3,982
100%
Фильм очень понравился! Так же открыл для себя новые познания про эту самую графиню , ибо думал что это вымысел. Непонятно каким образом Свинк выжил?
P.S Эта игрушка в во времена съёмок этого фильма получилась очень даже ничего (по графике , да и геймплею тоже).
Показать сообщения:   
Начать новую тему   Ответить на тему    Торрент-трекер NNM-Club -> Зарубежное кино -> Зарубежные Фильмы (HD*Rip/LQ, DVDRip, SATRip, VHSRip) Часовой пояс: GMT + 3
Страница 1 из 1