Классический форум-трекер
canvas not supported
Нас вместе: 4 114 182

В тени луны / In the Shadow of the Moon (2007) BDRip [720p]


 
 
RSS
Начать новую тему   Ответить на тему    Торрент-трекер NNM-Club -> Документалистика и Телепередачи -> Космос
Автор Сообщение
Long__Boy ®
Стаж: 7 лет 7 мес.
Сообщений: 838
Ratio: 91,4
Поблагодарили: 135224
100%
В тени луны / In the Shadow of the Moon (2007) BDRip

Русское название: В тени луны
Оригинальное название: In the Shadow of the Moon
Режиссер / Телекомпания: Дэвид Сайнтон / Discovery Films, FilmFour, Passion Pictures
Год выпуска: 2007
Жанр: документальный, история
Описание: В период с 1968 по 1972 годы к Луне были отправлены 9 космических экипажей, по ее поверхности ходили 12 человек. Они остаются единственными людьми, стоявшими на другом небесном теле. В этом фильме оставшиеся в живых участники экспедиций по программе "Аполлон" рассказывают про то, что же там произошло.
Участники: Базз Алдрин, Нил Армстронг, Стивен Армстронг, Виола Армстронг, Алан Бин, Майкл Коллинз, Чарльз Дьюк, Джон Ф. Кеннеди, Джим Ловелл
Продолжительность: 01:39:40

Перевод: Одноголосый закадровый, любительский
Субтитры: Русские
Видеокодек: AVC
Битрейт видео: 5400 Кбит/сек
Размер кадра: 1280x720
Качество видео: HDTVRip
Аудио #1: AC-3 2.0; 192 kbps; 48,0 КГц; - Русский
Аудио #2: AC-3 5.1; 448 kbps; 48,0 КГц; - Английский
Сохранены оригинальные чаптеры как на Blu-Ray

Семпл
Код:
Общее
Уникальный идентификатор                : 201459341113059108085983740960657366891 (0x978FA863217D95D0B0D9C97D51AFDF6B)
Полное имя                              : F:\V.teni.luny.2007.BDRip.(720p).mkv
Формат                                  : Matroska
Версия формата                          : Version 4 / Version 2
Размер файла                            : 4,19 Гбайт
Продолжительность                        : 1 ч. 39 м.
Общий поток                              : 6009 Кбит/сек
Название фильма                          : = MediaClub = rip by Painter
Дата кодирования                        : UTC 2013-09-08 07:55:53
Программа кодирования                    : mkvmerge v6.1.0 ('Old Devil') built on Mar  2 2013 14:32:37
Библиотека кодирования                  : libebml v1.3.0 + libmatroska v1.4.0

Видео
Идентификатор                            : 1
Формат                                  : AVC
Формат/Информация                        : Advanced Video Codec
Профиль формата                          : High@L4.1
Параметр CABAC формата                  : Да
Параметр ReFrames формата                : 9 кадров
Идентификатор кодека                    : V_MPEG4/ISO/AVC
Продолжительность                        : 1 ч. 39 м.
Битрейт                                  : 5400 Кбит/сек
Ширина                                  : 1280 пикселей
Высота                                  : 720 пикселей
Соотношение сторон                      : 16:9
Режим частоты кадров                    : Постоянный
Частота кадров                          : 24,000 кадра/сек
Цветовое пространство                    : YUV
Субдискретизация насыщенности            : 4:2:0
Битовая глубина                          : 8 бит
Тип развёртки                            : Прогрессивная
Бит/(Пиксели*Кадры)                      : 0.244
Размер потока                            : 3,68 Гбайт (88%)
Библиотека кодирования                  : x264 core 130 r2273 b3065e6
Настройки программы                      : cabac=1 / ref=9 / deblock=1:-3:-3 / analyse=0x3:0x133 / me=umh / subme=11 / psy=1 / psy_rd=1.00:0.20 / mixed_ref=1 / me_range=32 / chroma_me=1 / trellis=2 / 8x8dct=1 / cqm=0 / deadzone=21,11 / fast_pskip=0 / chroma_qp_offset=-3 / threads=6 / lookahead_threads=1 / sliced_threads=0 / nr=0 / decimate=0 / interlaced=0 / bluray_compat=0 / constrained_intra=0 / bframes=8 / b_pyramid=2 / b_adapt=2 / b_bias=0 / direct=3 / weightb=1 / open_gop=0 / weightp=2 / keyint=240 / keyint_min=23 / scenecut=40 / intra_refresh=0 / rc=2pass / mbtree=0 / bitrate=5400 / ratetol=1.0 / qcomp=0.60 / qpmin=0 / qpmax=69 / qpstep=4 / cplxblur=20.0 / qblur=0.5 / ip_ratio=1.40 / pb_ratio=1.30 / aq=1:1.00
Язык                                    : English
Default                                  : Да
Forced                                  : Нет

Аудио #1
Идентификатор                            : 2
Формат                                  : AC-3
Формат/Информация                        : Audio Coding 3
Расширение режима                        : CM (complete main)
Параметр Endianness формата              : Big
Идентификатор кодека                    : A_AC3
Продолжительность                        : 1 ч. 39 м.
Вид битрейта                            : Постоянный
Битрейт                                  : 160 Кбит/сек
Каналы                                  : 2 канала
Расположение каналов                    : Front: L R
Частота                                  : 48,0 КГц
Битовая глубина                          : 16 бит
Метод сжатия                            : С потерями
Размер потока                            : 114 Мбайт (3%)
Язык                                    : Russian
Default                                  : Да
Forced                                  : Нет

Аудио #2
Идентификатор                            : 3
Формат                                  : AC-3
Формат/Информация                        : Audio Coding 3
Расширение режима                        : CM (complete main)
Параметр Endianness формата              : Big
Идентификатор кодека                    : A_AC3
Продолжительность                        : 1 ч. 39 м.
Вид битрейта                            : Постоянный
Битрейт                                  : 448 Кбит/сек
Каналы                                  : 6 каналов
Расположение каналов                    : Front: L C R, Side: L R, LFE
Частота                                  : 48,0 КГц
Битовая глубина                          : 16 бит
Метод сжатия                            : С потерями
Размер потока                            : 320 Мбайт (7%)
Язык                                    : English
Default                                  : Нет
Forced                                  : Нет

Текст
Идентификатор                            : 4
Формат                                  : UTF-8
Идентификатор кодека                    : S_TEXT/UTF8
Идентификатор кодека/Информация          : UTF-8 Plain Text
Язык                                    : Russian
Default                                  : Нет
Forced                                  : Нет

Меню
00:00:00.000                            : :Chapter 01
00:10:36.083                            : :Chapter 02
00:19:45.000                            : :Chapter 03
00:22:16.125                            : :Chapter 04
00:26:54.416                            : :Chapter 05
00:36:19.000                            : :Chapter 06
00:52:12.083                            : :Chapter 07
01:01:34.666                            : :Chapter 08
01:11:47.208                            : :Chapter 09
01:15:47.708                            : :Chapter 10
01:24:51.791                            : :Chapter 11
01:31:29.416                            : :Chapter 12



Время раздачи: 24/7 до 3х скачавших, дальше по мере возможности...
Постер и оформление Long__Boy®


[NNM-Club.me]_V.teni.luny.2007.BDRip.(720p).mkv.torrent
 Торрент: Платиновая раздача  Зарегистрирован
 
Скачать


Примагнититься
 Зарегистрирован:   12 Сен 2013 18:16:23
 Размер:   4,19 GB  (
 Рейтинг:   4,8 (Голосов: 60)
 Поблагодарили:   257
 Проверка:   Оформление проверено модератором 12 Сен 2013 19:01:38
Как cкачать  ·  Как раздать  ·  Правильно оформить  ·  Поднять ратио!  
sergej78964
Стаж: 6 лет 5 мес.
Сообщений: 40
Ratio: 2,931
100%
russia.gif
Это   я качал несколько часов!?
Показать сообщения:   
Начать новую тему   Ответить на тему    Торрент-трекер NNM-Club -> Документалистика и Телепередачи -> Космос Часовой пояс: GMT + 3
Страница 1 из 1