Классический форум-трекер
canvas not supported
Нас вместе: 4 083 555
Платим за отзывы

Подручный Хадсакера / The Hudsucker Proxy (1994) HDRip


 
 
RSS
Начать новую тему   Ответить на тему    Торрент-трекер NNM-Club -> Зарубежное кино -> Зарубежные Фильмы (HD*Rip/LQ, DVDRip, SATRip, VHSRip)
Автор Сообщение
Rulya74 ®
Феникс
Стаж: 10 лет 1 мес.
Сообщений: 1123
Ratio: 305,103
Раздал: 59,64 TB
Поблагодарили: 131264
100%
ukraine.gif
Подручный Хадсакера / The Hudsucker Proxy (1994) HDRip

Год выпуска: 1994
Жанр: Фэнтези, Комедия
Производство: Великобритания, Германия, США

Описание фильма:
Безработный паренек из провинции оказывается в самом центре Америки — Нью-Йорке, в поисках работы. Благодаря счастливому стечению обстоятельств, его зачисляют в число клерков одной из крупнейших компаний. С этого момента новоиспеченному клерку начинает везти.

В результате чиновничьих интриг парень из провинции оказывается председателем компании, и этот поворот судьбы резко меняет его жизнь. Но слава и деньги, о которых когда-то мечтал герой, могут не только возвеличить, но и порядком испортить ему жизнь.

Режиссер: Джоэл Коэн, Итан Коэн
Актеры: Тим Роббинс, Дженнифер Джейсон Ли, Пол Ньюман, Чарльз Дёрнинг, Джон Махони, Джим Тру-Фрост, Билл Коббс, Брюс Кэмпбелл, Гарри Бьюджин, Джон Сайц...

Продолжительность: 01:50:45
Качество видео: HDRip
Перевод: Многоголосый закадровый (профессионалный)



Дата мировой премьеры: 11 марта 1994

Видеокодек: Xvid
Битрейт видео: ~1483 kbps
Размер кадра: 720x400
Аудиокодек: AC3 5.1
Битрейт аудио: 384.00 kbps

&
Общее
Полное имя : D:\Torrent\The Hudsucker Proxy.1994.HDRip.avi
Формат : AVI
Формат/Информация : Audio Video Interleave
Размер файла : 1,45 Гбайт
Продолжительность : 1 ч. 50 м.
Общий поток : 1877 Кбит/сек
Название фильма : The Hudsucker Proxy.1994.HDRip rip by Rulya74
Программа кодирования : VirtualDubModRus 1.5.10.2 (build 2542/release)

Видео
Идентификатор : 0
Формат : MPEG-4 Visual
Профиль формата : Advanced Simple@L5
Параметр BVOP формата : 1
Параметр QPel формата : Нет
Параметр GMC формата : Без точки перехода
Параметр матрицы формата : Выборочная
Режим смешивания : Сжатый битовый поток
Идентификатор кодека : XVID
Идентификатор кодека/Подсказка : XviD
Продолжительность : 1 ч. 50 м.
Битрейт : 1483 Кбит/сек
Ширина : 720 пикселей
Высота : 400 пикселей
Соотношение сторон : 16:9
Частота кадров : 23,976 кадра/сек
Цветовое пространство : YUV
Субдискретизация насыщенности : 4:2:0
Битовая глубина : 8 бит
Тип развёртки : Прогрессивная
Метод сжатия : С потерями
Бит/(Пиксели*Кадры) : 0.215
Размер потока : 1,15 Гбайт (79%)
Библиотека кодирования : XviD 73

Аудио
Идентификатор : 1
Формат : AC-3
Формат/Информация : Audio Coding 3
Расширение режима : CM (complete main)
Параметр Endianness формата : Big
Идентификатор кодека : 2000
Продолжительность : 1 ч. 50 м.
Вид битрейта : Постоянный
Битрейт : 384 Кбит/сек
Каналы : 6 каналов
Расположение каналов : Front: L C R, Side: L R, LFE
Частота : 48,0 КГц
Битовая глубина : 16 бит
Метод сжатия : С потерями
Размер потока : 304 Мбайт (20%)
Выравнивание : Разделение по промежуткам
Продолжительность промежутка : 42 мс. (1,00 видеокадр)
Время предзагрузки промежутка : 500 мс.
Скриншоты:


Время раздачи: с 9:00 до 23:00

Другие раздачи Подручный Хадсакера / The Hudsucker Proxy (1994)
[NNM-Club.me]_The Hudsucker Proxy.1994.HDRip.avi.torrent
 Торрент: Платиновая раздача  Зарегистрирован
 
Скачать


Примагнититься
 Зарегистрирован:   14 Сен 2013 11:50:21
 Размер:   1,45 GB  (
 Рейтинг:   4,6 (Голосов: 51)
 Поблагодарили:   229
 Проверка:   Оформление проверено модератором 14 Сен 2013 23:40:10
Как cкачать  ·  Как раздать  ·  Правильно оформить  ·  Поднять ратио!  
astrofizik
 

Online
Стаж: 9 лет 10 мес.
Сообщений: 118
Ratio: 20,082
100%
russia.gif
Отличный фильм.
ИМХО старое название - "ЗИЦ председатель" гораздо больше подходит к фильму.
Показать сообщения:   
Начать новую тему   Ответить на тему    Торрент-трекер NNM-Club -> Зарубежное кино -> Зарубежные Фильмы (HD*Rip/LQ, DVDRip, SATRip, VHSRip) Часовой пояс: GMT + 3
Страница 1 из 1