Классический форум-трекер
canvas not supported
Нас вместе: 4 079 387

Юрий Полушин | Православная энциклопедия. Рождество Пресвятой Богородицы [2012] SATRip


 
 
RSS
Начать новую тему   Ответить на тему    Торрент-трекер NNM-Club -> Религии и культы -> Религиозное видео
Автор Сообщение
user_root ®
Uploader 100+
Стаж: 10 лет 2 мес.
Сообщений: 999
Ratio: 1425,429
Поблагодарили: 16928
100%
Откуда: Из тех же ворот, откуда и весь народ.
russia.gif
Юрий Полушин | Православная энциклопедия. Рождество Пресвятой Богородицы [2012] SATRip
Название: Православная энциклопедия. Рождество Пресвятой Богородицы
Режиссер: Юрий Полушин
Год выпуска: 2012
Жанр: Документальный, религия, православие
Производство: Кинокомпания "Православная энциклопедия" по заказу "ТВ Центр"

Продолжительность: 00:25:57
Качество видео: SATRip
Видеокодек: XviD
Битрейт видео: ~1497 kbps
Размер кадра: 704x528
Аудиокодек: AC3 2.0
Битрейт аудио: 192 Kbps

Описание:
21 сентября православные празднуют Рождество Пресвятой Богородицы. Об этом событии не сказано в Писании, подробности его известны из апокрифического текста середины II века «Протоевангелие Иакова». Согласно существующему Преданию, место, где произошло Рождество Богородицы, находится в Иерусалиме. Однако в Русской Православной Церкви получила распространение версия, которой придерживался святитель Димитрий Ростовский: о том, что родители Девы Марии жили в Назарете и там-то она и родилась. В горной области на север от Иерусалима, на откосе одной из гор около Эздрелонской долины, лежал Назарет. В этом-то городке жила благочестивая чета Иоакима и Анны, которых Господь избрал стать прародителями Спасителя мира. Иоаким происходил из дома царя Давида, а Анна — из священнического рода. Племянница Анны, праведная Елизавета, стала потом матерью Иоанна Крестителя и двоюродной сестрой будущей Девы Марии.
Код:

Общее
Полное имя                               : D:\1UP\Рождество Пресвятой Богородицы.avi
Формат                                   : AVI
Формат/Информация                        : Audio Video Interleave
Размер файла                             : 316 Мбайт
Продолжительность                        : 25 м.
Общий поток                              : 1699 Кбит/сек
Программа кодирования                    : VirtualDubMod 1.5.10.3 | www.virtualdub-fr.org || (build 2550/release)
Библиотека кодирования                   : VirtualDubMod build 2550/release

Видео
Идентификатор                            : 0
Формат                                   : MPEG-4 Visual
Профиль формата                          : Advanced Simple@L5
Параметр BVOP формата                    : 2
Параметр QPel формата                    : Нет
Параметр GMC формата                     : Без точки перехода
Параметр матрицы формата                 : Default (H.263)
Идентификатор кодека                     : XVID
Идентификатор кодека/Подсказка           : XviD
Продолжительность                        : 25 м.
Битрейт                                  : 1497 Кбит/сек
Ширина                                   : 704 пикселя
Высота                                   : 528 пикселей
Соотношение сторон                       : 4:3
Частота кадров                           : 25,000 кадров/сек
Цветовое пространство                    : YUV
Субдискретизация насыщенности            : 4:2:0
Битовая глубина                          : 8 бит
Тип развёртки                            : Прогрессивная
Метод сжатия                             : С потерями
Бит/(Пиксели*Кадры)                      : 0.161
Размер потока                            : 278 Мбайт (88%)
Библиотека кодирования                   : XviD 1.2.1 (UTC 2008-12-04)

Аудио
Идентификатор                            : 1
Формат                                   : AC-3
Формат/Информация                        : Audio Coding 3
Расширение режима                        : CM (complete main)
Параметр Endianness формата              : Big
Идентификатор кодека                     : 2000
Продолжительность                        : 25 м.
Вид битрейта                             : Постоянный
Битрейт                                  : 192 Кбит/сек
Каналы                                   : 2 канала
Расположение каналов                     : Front: L R
Частота                                  : 48,0 КГц
Битовая глубина                          : 16 бит
Метод сжатия                             : С потерями
Размер потока                            : 35,6 Мбайт (11%)
Выравнивание                             : Разделение по промежуткам
Продолжительность промежутка             : 40  мс. (1,00 видеокадр)
Время предзагрузки промежутка            : 500  мс.

Скриншоты:


Время раздачи: C 8:00 до 23:00 мск. До первых пяти скачавших.
[NNM-Club.me]_Rozhdestvo Presvyatoy Bogoroditsyi.avi.torrent
 Торрент: Платиновая раздача  Зарегистрирован
 
Скачать


Примагнититься
 Зарегистрирован:   22 Сен 2013 14:19:00
 Размер:   316 MB  (
 Рейтинг:   3,5 (Голосов: 38)
 Поблагодарили:   80
 Проверка:   Оформление проверено модератором 22 Сен 2013 15:54:07
Как cкачать  ·  Как раздать  ·  Правильно оформить  ·  Поднять ратио!  
Показать сообщения:   
Начать новую тему   Ответить на тему    Торрент-трекер NNM-Club -> Религии и культы -> Религиозное видео Часовой пояс: GMT + 3
Страница 1 из 1