Классический форум-трекер
canvas not supported
Нас вместе: 4 104 626

Queen Emeraldas OVA / Королева Эмиральда [1998, OVA+SP, 4+2] DVDRip 478p raw


 
 
RSS
Начать новую тему   Ответить на тему    Торрент-трекер NNM-Club -> Аниме с субтитрами -> Аниме (SD)
Автор Сообщение
loki ®
Стаж: 9 лет 2 мес.
Сообщений: 4729
Ratio: 62,858
Поблагодарили: 37398
100%
Откуда: Днепр
roody.gif

クィーン・エメラルダス
Queen Emeraldas
Королева Эмиральда

Жанр: приключения, фантастика
Тип: OVA
Продолжительность: 4 эп. + 2 спэшла, 30 мин.
Дата премьеры / период выхода: c 05.06.1998 по 18.12.1999
Производство/студия:
Автор оригинала: Мацумото Лэйдзи
Режиссер: Асада Юдзи
Качество видео: DVDRip
Контейнер: MKV
Видео: MPEG4/AVC
Битрейт видео: 1500 Kbps
Размер кадра: 712x478
Аудио:
JAP; AC-3; 48.0 KHz; 2ch; 192 Kbps
Субтитры:
RUS; Nomad (1-2); Flameezar (3-4) SRT (int)
ENG; SRT (int)
Описание:
В далеком будущем одна раса хочет установить контроль над галактикой. У человечества есть только одна надежда: странная женщина-воин по имени Емеральда. Ведомая воспоминаниями о потерянной любви, Емеральда перемещается в Море Звезд, разрушая силы тирании до основания удивительным футуристическим оружием.
Код:
Общее
Уникальный идентификатор                 : 201987011344597322918820345327732758126 (0x97F54889CB835D1BAF2E8305E781966E)
Полное имя                               : Queen Emeraldas ep1.mkv
Формат                                   : Matroska
Версия формата                           : Version 4 / Version 2
Размер файла                             : 375 Мбайт
Продолжительность                        : 30 м.
Общий поток                              : 1696 Кбит/сек
Дата кодирования                         : UTC 2013-09-27 11:19:15
Программа кодирования                    : mkvmerge v6.2.0 ('Promised Land') built on Apr 28 2013 12:22:01
Библиотека кодирования                   : libebml v1.3.0 + libmatroska v1.4.0

Видео
Идентификатор                            : 1
Формат                                   : AVC
Формат/Информация                        : Advanced Video Codec
Профиль формата                          : High@L3.0
Параметр CABAC формата                   : Да
Параметр ReFrames формата                : 3 кадра
Идентификатор кодека                     : V_MPEG4/ISO/AVC
Продолжительность                        : 30 м.
Битрейт                                  : 1500 Кбит/сек
Ширина                                   : 712 пикселей
Высота                                   : 478 пикселей
Соотношение сторон                       : 4:3
Соотношение сторон в оригинале           : 4:3
Режим частоты кадров                     : Постоянный
Частота кадров                           : 23,976 кадра/сек
Цветовое пространство                    : YUV
Субдискретизация насыщенности            : 4:2:0
Битовая глубина                          : 8 бит
Тип развёртки                            : Прогрессивная
Бит/(Пиксели*Кадры)                      : 0.184
Размер потока                            : 325 Мбайт (87%)
Библиотека кодирования                   : x264 core 79 r1347 5ddd61b
Настройки программы                      : cabac=1 / ref=3 / deblock=1:2:2 / analyse=0x3:0x133 / me=umh / subme=9 / psy=1 / psy_rd=1.0:1.0 / mixed_ref=1 / me_range=16 / chroma_me=1 / trellis=1 / 8x8dct=1 / cqm=0 / deadzone=21,11 / chroma_qp_offset=-4 / threads=3 / nr=150 / decimate=1 / mbaff=0 / constrained_intra=0 / bframes=6 / b_pyramid=0 / b_adapt=1 / b_bias=0 / direct=3 / wpredb=1 / wpredp=2 / keyint=240 / keyint_min=24 / scenecut=40 / rc_lookahead=40 / rc=2pass / mbtree=1 / bitrate=1500 / ratetol=1.0 / qcomp=0.60 / qpmin=10 / qpmax=51 / qpstep=4 / cplxblur=20.0 / qblur=0.5 / ip_ratio=1.40 / aq=1:1.00
Язык                                     : Japanese
Default                                  : Да
Forced                                   : Нет
Основные цвета                           : BT.601 NTSC
Характеристики трансфера                 : BT.709
Коэффициенты матрицы                     : BT.601

Аудио
Идентификатор                            : 2
Формат                                   : AC-3
Формат/Информация                        : Audio Coding 3
Расширение режима                        : CM (complete main)
Параметр Endianness формата              : Big
Идентификатор кодека                     : A_AC3
Продолжительность                        : 30 м.
Вид битрейта                             : Постоянный
Битрейт                                  : 192 Кбит/сек
Каналы                                   : 2 канала
Расположение каналов                     : Front: L R
Частота                                  : 48,0 КГц
Битовая глубина                          : 16 бит
Метод сжатия                             : С потерями
Размер потока                            : 42,4 Мбайт (11%)
Язык                                     : Japanese
Default                                  : Да
Forced                                   : Нет

Текст #1
Идентификатор                            : 3
Формат                                   : UTF-8
Идентификатор кодека                     : S_TEXT/UTF8
Идентификатор кодека/Информация          : UTF-8 Plain Text
Заголовок                                : Veacheslav420 aka Nomad
Язык                                     : Russian
Default                                  : Да
Forced                                   : Нет

Текст #2
Идентификатор                            : 4
Формат                                   : VobSub
Режим смешивания                         : zlib
Идентификатор кодека                     : S_VOBSUB
Идентификатор кодека/Информация          : The same subtitle format used on DVDs
Язык                                     : English
Default                                  : Нет
Forced                                   : Нет

Меню
00:00:00.000                             : en:Chapter  1
00:09:15.096                             : en:Chapter  2
00:19:15.362                             : en:Chapter  3
00:28:54.983                             : en:Chapter  4


Вселенная Мацумото Лэйдзи


ANN || AniDB || MAL || World Art




Время раздачи: 24/7
[NNM-Club.me]_Queen Emeraldas.torrent
 Торрент: Платиновая раздача  Зарегистрирован
 
Скачать


Примагнититься
 Зарегистрирован:   27 Сен 2013 14:45:27
 Размер:   1,76 GB  (
 Рейтинг:   4,8 (Голосов: 17)
 Поблагодарили:   39
 Проверка:   Оформление проверено модератором 27 Сен 2013 15:13:49
Как cкачать  ·  Как раздать  ·  Правильно оформить  ·  Поднять ратио!  
Показать сообщения:   
Начать новую тему   Ответить на тему    Торрент-трекер NNM-Club -> Аниме с субтитрами -> Аниме (SD) Часовой пояс: GMT + 3
Страница 1 из 1