Классический форум-трекер
canvas not supported
Нас вместе: 4 103 308

Space Pirate Captain Herlock: Outside Legend - The Endless Odyssey / Бесконечная одиссея капитана Харлока [2002, OVA, 13] DVDRip 480p raw


 
 
RSS
Начать новую тему   Ответить на тему    Торрент-трекер NNM-Club -> Аниме с субтитрами -> Аниме (SD)
Автор Сообщение
loki ®
Стаж: 9 лет 2 мес.
Сообщений: 4729
Ratio: 62,852
Поблагодарили: 37388
100%
Откуда: Днепр
roody.gif

Space Pirate Captain Herlock: Outside Legend - The Endless Odyssey
Бесконечная одиссея капитана Харлока OVA

Жанр: приключения, фантастика
Тип: OVA
Продолжительность: 13 эп., 25 мин.
Дата премьеры / период выхода: c 21.12.2002 по 21.12.2003
Производство/студия:
Автор оригинала: Мацумото Лэйдзи
Режиссер: Ринтаро
Качество видео: DVDRip
Энкод: Zero_fansubs.ru
Контейнер: MKV
Видео: MPEG4/AVC
Битрейт видео: 800 Kbps
Размер кадра: 640x480 (4:3)
Аудио:
JAP; AC3; 48.0 KHz; 5.1ch; 448 Kbps
Субтитры:
RUS; Dyx & Purity ASS (ext)
Описание:
Продолжение сериала про капитана Харлока, снятого в1978 году. Легендарный пират капитан Харлок исчез много лет назад, а его команда разбрелась по галактике... Но мир и покой не продлился долго - на планете К12 группа считавшихся погибшими учёных убивает профессора Дайбу и пытается убить его сына Тадаши, но им мешает вернувшийся из ниоткуда капитан Харлок. Однако враг не успокаивается, и вот - Земля, родина человечества, бесследно исчезает!
Харлоку приходится отправиться в новое путешествие и он собирает свою команду, чтобы противостоять Нуу, древним демонам, стремящимся вновь захватить власть во всей галактике.

Дополнительная информация:
Сериал первоначально планировалось показать на телевидении летом 2002 года, однако вследствие производственных задержек трансляция была отменена, и, начиная с декабря 2002 года, каждый месяц выпускался DVD с очередной серией. Уже по окончанию релиза телетрансляция всё-таки состоялась на канале NTV.
Код:
Общее
Уникальный идентификатор                 : 176033416741771652316049890422388849890 (0x846ECD87AE55128E88FC6CB2321E7CE2)
Полное имя                               : Space Pirate Captain Harlock - The Endless Odyssey - 01.mkv
Формат                                   : Matroska
Версия формата                           : Version 2
Размер файла                             : 228 Мбайт
Продолжительность                        : 25 м.
Общий поток                              : 1271 Кбит/сек
Дата кодирования                         : UTC 2010-02-18 03:08:41
Программа кодирования                    : mkvmerge v3.1.0 ('Happy up here') 编译于 Jan 19 2010 12:09:24
Библиотека кодирования                   : libebml v0.7.9 + libmatroska v0.8.1

Видео
Идентификатор                            : 1
Формат                                   : AVC
Формат/Информация                        : Advanced Video Codec
Профиль формата                          : High@L5.1
Параметр CABAC формата                   : Да
Параметр ReFrames формата                : 5 кадров
Идентификатор кодека                     : V_MPEG4/ISO/AVC
Продолжительность                        : 25 м.
Битрейт                                  : 798 Кбит/сек
Ширина                                   : 640 пикселей
Высота                                   : 480 пикселей
Соотношение сторон                       : 4:3
Режим частоты кадров                     : Постоянный
Частота кадров                           : 23,976 кадра/сек
Цветовое пространство                    : YUV
Субдискретизация насыщенности            : 4:2:0
Битовая глубина                          : 8 бит
Тип развёртки                            : Прогрессивная
Бит/(Пиксели*Кадры)                      : 0.108
Размер потока                            : 143 Мбайт (63%)
Язык                                     : Japanese
Default                                  : Да
Forced                                   : Нет

Аудио
Идентификатор                            : 2
Формат                                   : AC-3
Формат/Информация                        : Audio Coding 3
Расширение режима                        : CM (complete main)
Параметр Endianness формата              : Big
Идентификатор кодека                     : A_AC3
Продолжительность                        : 25 м.
Вид битрейта                             : Постоянный
Битрейт                                  : 448 Кбит/сек
Каналы                                   : 6 каналов
Расположение каналов                     : Front: L C R, Side: L R, LFE
Частота                                  : 48,0 КГц
Битовая глубина                          : 16 бит
Метод сжатия                             : С потерями
Размер потока                            : 80,5 Мбайт (35%)
Язык                                     : Japanese
Default                                  : Да
Forced                                   : Нет

Вселенная Мацумото Лэйдзи


Official page || ANN || AniDB || MAL || World Art




Время раздачи: 24/7
[NNM-Club.me]_Space Pirate Captain Herlock ~The Endless Odyssey~.torrent
 Торрент: Платиновая раздача  Зарегистрирован
 
Скачать


Примагнититься
 Зарегистрирован:   30 Сен 2013 18:54:42
 Размер:   2,73 GB  (
 Рейтинг:   4,2 (Голосов: 33)
 Поблагодарили:   45
 Проверка:   Оформление проверено модератором 30 Сен 2013 21:02:24
Как cкачать  ·  Как раздать  ·  Правильно оформить  ·  Поднять ратио!  
Показать сообщения:   
Начать новую тему   Ответить на тему    Торрент-трекер NNM-Club -> Аниме с субтитрами -> Аниме (SD) Часовой пояс: GMT + 3
Страница 1 из 1