Классический форум-трекер
canvas not supported
Нас вместе: 4 104 599

Fleetwood Mac - Tango In The Night (1987) Warner Brothers/2005 [FLAC 2.0 24/192|Tracks (WEB-DL)]<Rock, Pop-rock>


 
 
RSS
Начать новую тему   Ответить на тему    Торрент-трекер NNM-Club -> HD Audio и Многоканальная Музыка -> WEB-DL-Audio
Автор Сообщение
Poweruss ®
 
Стаж: 8 лет 5 мес.
Сообщений: 2391
Ratio: 98,297
Поблагодарили: 26386
100%
Откуда: точно не знаю.
nnm-club.gif
Fleetwood Mac - Tango In The Night (1987)

Описание:
Fleetwood Mac — влиятельная и коммерчески успешная британо-американская группа, которая с момента своего создания в июле 1967 года знала немало взлётов и падений, несколько раз обновляла состав и меняла стиль исполняемой музыки, благодаря чему смогла сохранить популярность дольше подавляющего большинства конкурентов - вплоть до самого конца XX века. Группа была создана в Лондоне выдающимся блюзовым гитаристом Питером Грином, который до этого записал успешный альбом с командой John Mayall & the Bluesbreakers. Название команда получила по именам ударника Мика Флитвуда и басиста Джона МакВи, которые никогда не оказывали существенного влияния на её музыкальное направление. Однако они - единственные участники первого состава, которые и по сей день выступают вместе с Fleetwood Mac.

Год: 1987 (2005 WB) | Жанр: Rock, Pop-rock | Лэйбл: The Rhino/Warner Bros. | Формат: WEB-DL
Аудио Кодек: FLAC | Тип Рипа: Tracks+.cue | Наличие Сканов: Liner Notes (pdf) | Происхождение Рипа: HDtracks

Продолжительность: 00:44:37

Треклист:
01. Big Love :: 03:41
02. Seven Wonders :: 03:42
03. Everywhere :: 03:47
04. Caroline :: 03:54
05. Tango In The Night :: 04:02
06. Mystified :: 03:12
07. Little Lies :: 03:41
08. Family Man :: 04:07
09. Welcome To The Room...Sara :: 03:42
09. Isn't It Midnight :: 04:13
09. When I See You Again :: 03:49
09. You And I, Part II :: 02:41
Код: выделить все
Общее
Полное имя                               : C:\Users\123\Desktop\МОЯ !!!\Flac\Fleetwood Mac - Tango In The Night (Warner Brothers.2005) 24-192 hdtracks\08. Fleetwood Mac - Family Man.flac
Формат                                   : FLAC
Формат/Информация                        : Free Lossless Audio Codec
Размер файла                             : 153 Мбайт
Продолжительность                        : 4 м. 7 с.
Режим общего битрейта                    : Переменный
Общий поток                              : 5180 Кбит/сек
Альбом                                   : Tango In The Night
Альбом/Исполнитель                       : Fleetwood Mac
Трек                                     : Family Man
Трек/Положение                           : 8
Исполнитель                              : Fleetwood Mac
Жанр                                     : Rock
Дата записи                              : 2011
Обложка                                  : Yes
Тип обложки                              : Cover (front)
MIME-тип обложки                         : image/jpeg
HDTRACKS                                 : www.hdtracks.com

Аудио
Формат                                   : FLAC
Формат/Информация                        : Free Lossless Audio Codec
Продолжительность                        : 4 м. 7 с.
Вид битрейта                             : Переменный
Битрейт                                  : 5170 Кбит/сек
Каналы                                   : 2 канала
Частота                                  : 192 КГц
Битовая глубина                          : 24 бит
Размер потока                            : 152 Мбайт (100%)
Библиотека кодирования                   : libFLAC 1.2.1 (UTC 2007-09-17)

Общее
Полное имя                               : C:\Users\123\Desktop\МОЯ !!!\Flac\Fleetwood Mac - Tango In The Night (Warner Brothers.2005) 24-192 hdtracks\09. Fleetwood Mac - Welcome To The Room...Sara.flac
Формат                                   : FLAC
Формат/Информация                        : Free Lossless Audio Codec
Размер файла                             : 139 Мбайт
Продолжительность                        : 3 м. 42 с.
Режим общего битрейта                    : Переменный
Общий поток                              : 5241 Кбит/сек
Альбом                                   : Tango In The Night
Альбом/Исполнитель                       : Fleetwood Mac
Трек                                     : Welcome To The Room...Sara
Трек/Положение                           : 9
Исполнитель                              : Fleetwood Mac
Жанр                                     : Rock
Дата записи                              : 2011
Обложка                                  : Yes
Тип обложки                              : Cover (front)
MIME-тип обложки                         : image/jpeg
HDTRACKS                                 : www.hdtracks.com

Аудио
Формат                                   : FLAC
Формат/Информация                        : Free Lossless Audio Codec
Продолжительность                        : 3 м. 42 с.
Вид битрейта                             : Переменный
Битрейт                                  : 5230 Кбит/сек
Каналы                                   : 2 канала
Частота                                  : 192 КГц
Битовая глубина                          : 24 бит
Размер потока                            : 139 Мбайт (100%)
Библиотека кодирования                   : libFLAC 1.2.1 (UTC 2007-09-17)

Общее
Полное имя                               : C:\Users\123\Desktop\МОЯ !!!\Flac\Fleetwood Mac - Tango In The Night (Warner Brothers.2005) 24-192 hdtracks\10. Fleetwood Mac - Isn't It Midnight.flac
Формат                                   : FLAC
Формат/Информация                        : Free Lossless Audio Codec
Размер файла                             : 160 Мбайт
Продолжительность                        : 4 м. 13 с.
Режим общего битрейта                    : Переменный
Общий поток                              : 5288 Кбит/сек
Альбом                                   : Tango In The Night
Альбом/Исполнитель                       : Fleetwood Mac
Трек                                     : Isn't It Midnight
Трек/Положение                           : 10
Исполнитель                              : Fleetwood Mac
Жанр                                     : Rock
Дата записи                              : 2011
Обложка                                  : Yes
Тип обложки                              : Cover (front)
MIME-тип обложки                         : image/jpeg
HDTRACKS                                 : www.hdtracks.com

Аудио
Формат                                   : FLAC
Формат/Информация                        : Free Lossless Audio Codec
Продолжительность                        : 4 м. 13 с.
Вид битрейта                             : Переменный
Битрейт                                  : 5278 Кбит/сек
Каналы                                   : 2 канала
Частота                                  : 192 КГц
Битовая глубина                          : 24 бит
Размер потока                            : 160 Мбайт (100%)
Библиотека кодирования                   : libFLAC 1.2.1 (UTC 2007-09-17)

Общее
Полное имя                               : C:\Users\123\Desktop\МОЯ !!!\Flac\Fleetwood Mac - Tango In The Night (Warner Brothers.2005) 24-192 hdtracks\11. Fleetwood Mac - When I See You Again.flac
Формат                                   : FLAC
Формат/Информация                        : Free Lossless Audio Codec
Размер файла                             : 135 Мбайт
Продолжительность                        : 3 м. 49 с.
Режим общего битрейта                    : Переменный
Общий поток                              : 4941 Кбит/сек
Альбом                                   : Tango In The Night
Альбом/Исполнитель                       : Fleetwood Mac
Трек                                     : When I See You Again
Трек/Положение                           : 11
Исполнитель                              : Fleetwood Mac
Жанр                                     : Rock
Дата записи                              : 2011
Обложка                                  : Yes
Тип обложки                              : Cover (front)
MIME-тип обложки                         : image/jpeg
HDTRACKS                                 : www.hdtracks.com

Аудио
Формат                                   : FLAC
Формат/Информация                        : Free Lossless Audio Codec
Продолжительность                        : 3 м. 49 с.
Вид битрейта                             : Переменный
Битрейт                                  : 4930 Кбит/сек
Каналы                                   : 2 канала
Частота                                  : 192 КГц
Битовая глубина                          : 24 бит
Размер потока                            : 135 Мбайт (100%)
Библиотека кодирования                   : libFLAC 1.2.1 (UTC 2007-09-17)

Общее
Полное имя                               : C:\Users\123\Desktop\МОЯ !!!\Flac\Fleetwood Mac - Tango In The Night (Warner Brothers.2005) 24-192 hdtracks\12. Fleetwood Mac - You And I, Part II.flac
Формат                                   : FLAC
Формат/Информация                        : Free Lossless Audio Codec
Размер файла                             : 99,7 Мбайт
Продолжительность                        : 2 м. 41 с.
Режим общего битрейта                    : Переменный
Общий поток                              : 5182 Кбит/сек
Альбом                                   : Tango In The Night
Альбом/Исполнитель                       : Fleetwood Mac
Трек                                     : You And I, Part II
Трек/Положение                           : 12
Исполнитель                              : Fleetwood Mac
Жанр                                     : Rock
Дата записи                              : 2011
Обложка                                  : Yes
Тип обложки                              : Cover (front)
MIME-тип обложки                         : image/jpeg
HDTRACKS                                 : www.hdtracks.com

Аудио
Формат                                   : FLAC
Формат/Информация                        : Free Lossless Audio Codec
Продолжительность                        : 2 м. 41 с.
Вид битрейта                             : Переменный
Битрейт                                  : 5167 Кбит/сек
Каналы                                   : 2 канала
Частота                                  : 192 КГц
Битовая глубина                          : 24 бит
Размер потока                            : 99,4 Мбайт (100%)
Библиотека кодирования                   : libFLAC 1.2.1 (UTC 2007-09-17)

Общее
Полное имя                               : C:\Users\123\Desktop\МОЯ !!!\Flac\Fleetwood Mac - Tango In The Night (Warner Brothers.2005) 24-192 hdtracks\01. Fleetwood Mac - Big Love.flac
Формат                                   : FLAC
Формат/Информация                        : Free Lossless Audio Codec
Размер файла                             : 137 Мбайт
Продолжительность                        : 3 м. 41 с.
Режим общего битрейта                    : Переменный
Общий поток                              : 5184 Кбит/сек
Альбом                                   : Tango In The Night
Альбом/Исполнитель                       : Fleetwood Mac
Трек                                     : Big Love
Трек/Положение                           : 1
Исполнитель                              : Fleetwood Mac
Жанр                                     : Rock
Дата записи                              : 2011
Обложка                                  : Yes
Тип обложки                              : Cover (front)
MIME-тип обложки                         : image/jpeg
HDTRACKS                                 : www.hdtracks.com

Аудио
Формат                                   : FLAC
Формат/Информация                        : Free Lossless Audio Codec
Продолжительность                        : 3 м. 41 с.
Вид битрейта                             : Переменный
Битрейт                                  : 5173 Кбит/сек
Каналы                                   : 2 канала
Частота                                  : 192 КГц
Битовая глубина                          : 24 бит
Размер потока                            : 137 Мбайт (100%)
Библиотека кодирования                   : libFLAC 1.2.1 (UTC 2007-09-17)

Общее
Полное имя                               : C:\Users\123\Desktop\МОЯ !!!\Flac\Fleetwood Mac - Tango In The Night (Warner Brothers.2005) 24-192 hdtracks\02. Fleetwood Mac - Seven Wonders.flac
Формат                                   : FLAC
Формат/Информация                        : Free Lossless Audio Codec
Размер файла                             : 139 Мбайт
Продолжительность                        : 3 м. 42 с.
Режим общего битрейта                    : Переменный
Общий поток                              : 5223 Кбит/сек
Альбом                                   : Tango In The Night
Альбом/Исполнитель                       : Fleetwood Mac
Трек                                     : Seven Wonders
Трек/Положение                           : 2
Исполнитель                              : Fleetwood Mac
Жанр                                     : Rock
Дата записи                              : 2011
Обложка                                  : Yes
Тип обложки                              : Cover (front)
MIME-тип обложки                         : image/jpeg
HDTRACKS                                 : www.hdtracks.com

Аудио
Формат                                   : FLAC
Формат/Информация                        : Free Lossless Audio Codec
Продолжительность                        : 3 м. 42 с.
Вид битрейта                             : Переменный
Битрейт                                  : 5212 Кбит/сек
Каналы                                   : 2 канала
Частота                                  : 192 КГц
Битовая глубина                          : 24 бит
Размер потока                            : 138 Мбайт (100%)
Библиотека кодирования                   : libFLAC 1.2.1 (UTC 2007-09-17)

Общее
Полное имя                               : C:\Users\123\Desktop\МОЯ !!!\Flac\Fleetwood Mac - Tango In The Night (Warner Brothers.2005) 24-192 hdtracks\03. Fleetwood Mac - Everywhere.flac
Формат                                   : FLAC
Формат/Информация                        : Free Lossless Audio Codec
Размер файла                             : 140 Мбайт
Продолжительность                        : 3 м. 47 с.
Режим общего битрейта                    : Переменный
Общий поток                              : 5158 Кбит/сек
Альбом                                   : Tango In The Night
Альбом/Исполнитель                       : Fleetwood Mac
Трек                                     : Everywhere
Трек/Положение                           : 3
Исполнитель                              : Fleetwood Mac
Жанр                                     : Rock
Дата записи                              : 2011
Обложка                                  : Yes
Тип обложки                              : Cover (front)
MIME-тип обложки                         : image/jpeg
HDTRACKS                                 : www.hdtracks.com

Аудио
Формат                                   : FLAC
Формат/Информация                        : Free Lossless Audio Codec
Продолжительность                        : 3 м. 47 с.
Вид битрейта                             : Переменный
Битрейт                                  : 5147 Кбит/сек
Каналы                                   : 2 канала
Частота                                  : 192 КГц
Битовая глубина                          : 24 бит
Размер потока                            : 140 Мбайт (100%)
Библиотека кодирования                   : libFLAC 1.2.1 (UTC 2007-09-17)

Общее
Полное имя                               : C:\Users\123\Desktop\МОЯ !!!\Flac\Fleetwood Mac - Tango In The Night (Warner Brothers.2005) 24-192 hdtracks\04. Fleetwood Mac - Caroline.flac
Формат                                   : FLAC
Формат/Информация                        : Free Lossless Audio Codec
Размер файла                             : 146 Мбайт
Продолжительность                        : 3 м. 54 с.
Режим общего битрейта                    : Переменный
Общий поток                              : 5206 Кбит/сек
Альбом                                   : Tango In The Night
Альбом/Исполнитель                       : Fleetwood Mac
Трек                                     : Caroline
Трек/Положение                           : 4
Исполнитель                              : Fleetwood Mac
Жанр                                     : Rock
Дата записи                              : 2011
Обложка                                  : Yes
Тип обложки                              : Cover (front)
MIME-тип обложки                         : image/jpeg
HDTRACKS                                 : www.hdtracks.com

Аудио
Формат                                   : FLAC
Формат/Информация                        : Free Lossless Audio Codec
Продолжительность                        : 3 м. 54 с.
Вид битрейта                             : Переменный
Битрейт                                  : 5195 Кбит/сек
Каналы                                   : 2 канала
Частота                                  : 192 КГц
Битовая глубина                          : 24 бит
Размер потока                            : 145 Мбайт (100%)
Библиотека кодирования                   : libFLAC 1.2.1 (UTC 2007-09-17)

Общее
Полное имя                               : C:\Users\123\Desktop\МОЯ !!!\Flac\Fleetwood Mac - Tango In The Night (Warner Brothers.2005) 24-192 hdtracks\05. Fleetwood Mac - Tango In The Night.flac
Формат                                   : FLAC
Формат/Информация                        : Free Lossless Audio Codec
Размер файла                             : 146 Мбайт
Продолжительность                        : 4 м. 2 с.
Режим общего битрейта                    : Переменный
Общий поток                              : 5052 Кбит/сек
Альбом                                   : Tango In The Night
Альбом/Исполнитель                       : Fleetwood Mac
Трек                                     : Tango In The Night
Трек/Положение                           : 5
Исполнитель                              : Fleetwood Mac
Жанр                                     : Rock
Дата записи                              : 2011
Обложка                                  : Yes
Тип обложки                              : Cover (front)
MIME-тип обложки                         : image/jpeg
HDTRACKS                                 : www.hdtracks.com

Аудио
Формат                                   : FLAC
Формат/Информация                        : Free Lossless Audio Codec
Продолжительность                        : 4 м. 2 с.
Вид битрейта                             : Переменный
Битрейт                                  : 5041 Кбит/сек
Каналы                                   : 2 канала
Частота                                  : 192 КГц
Битовая глубина                          : 24 бит
Размер потока                            : 146 Мбайт (100%)
Библиотека кодирования                   : libFLAC 1.2.1 (UTC 2007-09-17)

Общее
Полное имя                               : C:\Users\123\Desktop\МОЯ !!!\Flac\Fleetwood Mac - Tango In The Night (Warner Brothers.2005) 24-192 hdtracks\06. Fleetwood Mac - Mystified.flac
Формат                                   : FLAC
Формат/Информация                        : Free Lossless Audio Codec
Размер файла                             : 113 Мбайт
Продолжительность                        : 3 м. 12 с.
Режим общего битрейта                    : Переменный
Общий поток                              : 4913 Кбит/сек
Альбом                                   : Tango In The Night
Альбом/Исполнитель                       : Fleetwood Mac
Трек                                     : Mystified
Трек/Положение                           : 6
Исполнитель                              : Fleetwood Mac
Жанр                                     : Rock
Дата записи                              : 2011
Обложка                                  : Yes
Тип обложки                              : Cover (front)
MIME-тип обложки                         : image/jpeg
HDTRACKS                                 : www.hdtracks.com

Аудио
Формат                                   : FLAC
Формат/Информация                        : Free Lossless Audio Codec
Продолжительность                        : 3 м. 12 с.
Вид битрейта                             : Переменный
Битрейт                                  : 4900 Кбит/сек
Каналы                                   : 2 канала
Частота                                  : 192 КГц
Битовая глубина                          : 24 бит
Размер потока                            : 112 Мбайт (100%)
Библиотека кодирования                   : libFLAC 1.2.1 (UTC 2007-09-17)

Общее
Полное имя                               : C:\Users\123\Desktop\МОЯ !!!\Flac\Fleetwood Mac - Tango In The Night (Warner Brothers.2005) 24-192 hdtracks\07. Fleetwood Mac - Little Lies.flac
Формат                                   : FLAC
Формат/Информация                        : Free Lossless Audio Codec
Размер файла                             : 138 Мбайт
Продолжительность                        : 3 м. 41 с.
Режим общего битрейта                    : Переменный
Общий поток                              : 5245 Кбит/сек
Альбом                                   : Tango In The Night
Альбом/Исполнитель                       : Fleetwood Mac
Трек                                     : Little Lies
Трек/Положение                           : 7
Исполнитель                              : Fleetwood Mac
Жанр                                     : Rock
Дата записи                              : 2011
Обложка                                  : Yes
Тип обложки                              : Cover (front)
MIME-тип обложки                         : image/jpeg
HDTRACKS                                 : www.hdtracks.com

Аудио
Формат                                   : FLAC
Формат/Информация                        : Free Lossless Audio Codec
Продолжительность                        : 3 м. 41 с.
Вид битрейта                             : Переменный
Битрейт                                  : 5234 Кбит/сек
Каналы                                   : 2 канала
Частота                                  : 192 КГц
Битовая глубина                          : 24 бит
Размер потока                            : 138 Мбайт (100%)
Библиотека кодирования                   : libFLAC 1.2.1 (UTC 2007-09-17)
Код: выделить все
foobar2000 1.2.9 / Замер динамического диапазона (DR) 1.1.1
Дата отчёта: 2013-10-04 22:49:53

--------------------------------------------------------------------------------
Анализ:       Fleetwood Mac / Tango In The Night
--------------------------------------------------------------------------------

DR         Пики            RMS           Продолжительность трека
--------------------------------------------------------------------------------
DR15       0.00 дб        -16.75 дб         3:42 1-Big Love
DR15      -0.38 дб        -17.42 дб         3:43 2-Seven Wonders
DR14      -1.23 дб        -19.49 дб         3:47 3-Everywhere
DR16      -0.18 дб        -19.31 дб         3:55 4-Caroline
DR14      -3.20 дб        -20.86 дб         4:03 5-Tango In The Night
DR13      -4.35 дб        -19.83 дб         3:12 6-Mystified
DR14      -1.88 дб        -18.24 дб         3:41 7-Little Lies
DR14      -1.82 дб        -17.77 дб         4:07 8-Family Man
DR15      -0.73 дб        -18.48 дб         3:43 9-Welcome To The Room...Sara
DR14      -1.50 дб        -17.30 дб         4:14 10-Isn't It Midnight
DR12      -6.48 дб        -22.78 дб         3:49 11-When I See You Again
DR13      -3.17 дб        -19.24 дб         2:41 12-You And I, Part II
--------------------------------------------------------------------------------

Количество треков:    12
Реальные значения DR: DR14

Частота:                 192000 Гц
Каналов:                 2
Бит на сэмпл:     24
Битрейт:                 5167 кбит/с
Кодек:                   FLAC
================================================================================




For the First Time - Digitally Released As High Resolution Downloads 192kHz/24bit Classic Jazz Titles from the Archives of Warner Bros Records, Reprise, Atlantic Records, and Rhino Records



Время раздачи: С 18:00 до 24:00 (по возможности дольше)
[NNM-Club.me]_Fleetwood Mac - Tango In The Night (Warner Brothers.2005) 24-192 hdtracks `1987.torrent
 Торрент: Платиновая раздача  Зарегистрирован
 
Скачать


Примагнититься
 Зарегистрирован:   04 Окт 2013 20:24:51
 Размер:   1,61 GB  (
 Рейтинг:   4,8 (Голосов: 23)
 Поблагодарили:   97
 Проверка:   Оформление проверено модератором 04 Окт 2013 22:43:22
Как cкачать  ·  Как раздать  ·  Правильно оформить  ·  Поднять ратио!  
Poweruss ®
 
Стаж: 8 лет 5 мес.
Сообщений: 2391
Ratio: 98,297
Поблагодарили: 26386
100%
Откуда: точно не знаю.
nnm-club.gif
ПРИЯТНОГО ПРОСЛУШИВАНИЯ! :подмигивание:
Sample

_________________
Что мешает тебе? Расскажи нам, бездарный танцор!
passerby777
Стаж: 7 лет 2 мес.
Сообщений: 13
Ratio: 11,292
97.66%
Спасибо, порадовал
DORAEMON2
Стаж: 7 лет 1 мес.
Сообщений: 239
Ratio: 26,067
Раздал: 4,929 TB
Поблагодарили: 3090
100%
russia.gif
Встаньте на раздачу
Показать сообщения:   
Начать новую тему   Ответить на тему    Торрент-трекер NNM-Club -> HD Audio и Многоканальная Музыка -> WEB-DL-Audio Часовой пояс: GMT + 3
Страница 1 из 1