Классический форум-трекер
canvas not supported
Нас вместе: 4 094 727

Дневники вампира / The Vampire Diaries (2013) WEB-DLRip [сезон 5, серии 1-12 из 22] [LostFilm](Обновляемая)


Страницы:  1, 2  След. 
 
RSS
Начать новую тему   Ответить на тему    Торрент-трекер NNM-Club -> Архив торрентов -> Архив Сериалов, а также Архив Старого многосерийного кино до 90-х
Автор Сообщение
Bucinsky ®
Стаж: 7 лет 9 мес.
Сообщений: 242
Ratio: 16,998
Поблагодарили: 11069
100%
Откуда: Керчь
ukraine.gif
Дневники вампира / The Vampire Diaries (2013) WEB-DLRip [сезон 5, серии 1-12 из 22] [LostFilm](Обновляемая)
Год выпуска: 2013
Жанр: Драма, Мелодрама, Ужасы

Перевод: Многоголосый закадровый, профессиональный(LostFilm)
Релиз группа:



Режиссер: Маркос Сига, Роб Харди, Дэвид Фон Энкен, Дж. Миллер Тобин, Джон Беринг, Джошуа Батлер, Джон Дал, Лиз Фридлендер, Крис Грисмер, Венди Станцлер, Кевин Брэй
Актеры: Нина Добрев, Пол Уэсли, Йен Сомерхалдер, Стивен Р. МакКуин, Катерина Грэхэм, Кэндис Аккола, Зак Рериг, Майкл Тревино, Джозеф Морган, Сара Каннинг, Кайла Юэлл, Дэвид Андерс, Клер Холт, Тейлор Кинни, Келли Ху, Роберт Пралго, Брайтон МакКлур, Михаэлла МакМанус, Джэсмин Гай, Рэнди Дж. Гудвин, Миа Киршнер, Лорен Коэн, Крис Дж. Джонсон, Себастьян Роше, Торри ДеВито, Бьянка Лоусон, Джек Коулмэн, Доун Оливери, Стерлинг Су

Описание фильма:
После долгого заточения в склепе, Сайлас наконец-то выбрался на волю и сможет показать свое истинное лицо. Все случившиеся в последнее время обстоятельства, заставляют героев покинуть город и податься по своему пути, но вот смогут ли они так легко отделаться от замыслов судьбы. На удивление многих зрителей, одна из любимых героинь Кетрин предстанет перед нами в новом обличии, ей придется отвыкнуть от мысли, что она пятисотлетний вампир - теперь она просто смертный человек. Будут ли продолжаться такие жаркие отношения между Деймоном и Еленой в новом сезоне, какие новые шокирующие тайны хранит семья Сальваторе-об этом и многом другом в новом 5 сезоне.

Сэмпл:
Качество видео: WEB-DLRip
Продолжительность: ~00:42:40 серия
Видеокодек: Xvid
Битрейт видео: ~1 175 Kbps
Размер кадра: 720x400
Аудио Rus: 48 kHz, MPEG Layer 3, 2 ch, 192 Kbps
Все раздачи Дневники вампира / The Vampire Diaries
General
Полное имя : D:\Новые фильмы\Дневники вампира s5\The.Vampire.Diaries.S05E01.rus.LostFilm.TV.avi
Формат : AVI
Формат/Информация : Audio Video Interleave
Размер файла : 420 MiB
Продолжительность : 42mn 40s
Режим общего битрейта : Variable
Общий поток : 1 376 Kbps
Программа кодирования : Nandub v1.0rc2
Библиотека кодирования : Nandub build 1853/release

Video
Идентификатор : 0
Формат : MPEG-4 Visual
Профиль формата : Simple@L3
Параметр BVOP формата : No
Параметр QPel формата : No
Параметр GMC формата : No warppoints
Параметр матрицы формата : Default (H.263)
Идентификатор кодека : XVID
Идентификатор кодека/Подсказка : XviD
Продолжительность : 42mn 40s
Битрейт : 1 175 Kbps
Ширина : 720 pixels
Высота : 400 pixels
Соотношение сторон : 16:9
Частота кадров : 23.976 fps
Цветовое пространство : YUV
Субдискретизация насыщенности : 4:2:0
Битовая глубина : 8 bits
Тип развёртки : Progressive
Метод сжатия : Lossy
Бит/(Пиксели*Кадры) : 0.170
Размер потока : 359 MiB (85%)
Библиотека кодирования : XviD 1.2.1 (UTC 2008-12-04)

Audio
Идентификатор : 1
Формат : MPEG Audio
Версия формата : Version 1
Профиль формата : Layer 3
Режим : Joint stereo
Расширение режима : MS Stereo
Идентификатор кодека : 55
Идентификатор кодека/Подсказка : MP3
Продолжительность : 42mn 40s
Вид битрейта : Variable
Битрейт : 192 Kbps
Каналы : 2 channels
Частота : 48.0 KHz
Метод сжатия : Lossy
Размер потока : 57.4 MiB (14%)
Выравнивание : Aligned on interleaves
Продолжительность промежутка : 24 ms (0.58 video frame)
Время предзагрузки промежутка : 494 ms
Библиотека кодирования : LAME3.97b
Настройки программы : -m j -V 4 -q 3 -lowpass 18.6 --abr 192
Внимание! Раздача ведётся путём добавления новых серий; при каждом добавлении создаётся новый торрент.
Чтобы начать докачку новой серии, пользователям необходимо сделать следующее:
1. Остановить скачивание;
2. Удалить старый торрент у себя из клиента (старые серии удалять не надо);
3. Скачать новый торрент и запустить его у себя в клиенте вместо старого, при этом указать клиенту путь в старую папку куда и должно происходить скачивание новых серий. Ваш клиент при этом должен произвести хеширование (проверку) старой папки и будет докачивать только те серии, которых у вас ещё нет. Старые серии при этом не удаляются, а продолжают раздаваться! Eсли вы уже удалили старые серии, то предотвратить повторную закачку старых серий можно, отжав галочку в соответствующих местах при запуске нового торрента.
Скриншоты:


Время раздачи: 24/7
[NNM-Club.me]_Dnevniki vampira s5.torrent
 Торрент: Платиновая раздача  Зарегистрирован
 
Скачать


Примагнититься
 Зарегистрирован:   01 Фев 2014 21:28:44
 Размер:   4,29 GB  (
 Рейтинг:   4,7 (Голосов: 155)
 Поблагодарили:   440
 Проверка:   Оформление проверено модератором 01 Фев 2014 21:38:29
Как cкачать  ·  Как раздать  ·  Правильно оформить  ·  Поднять ратио!  

_________________
люблю свою девочку:*
Bucinsky ®
Стаж: 7 лет 9 мес.
Сообщений: 242
Ratio: 16,998
Поблагодарили: 11069
100%
Откуда: Керчь
ukraine.gif
Добавлена серия №2

_________________
люблю свою девочку:*
Bucinsky ®
Стаж: 7 лет 9 мес.
Сообщений: 242
Ratio: 16,998
Поблагодарили: 11069
100%
Откуда: Керчь
ukraine.gif
Добавлена серия №3

_________________
люблю свою девочку:*
Bucinsky ®
Стаж: 7 лет 9 мес.
Сообщений: 242
Ratio: 16,998
Поблагодарили: 11069
100%
Откуда: Керчь
ukraine.gif
Добавлена серия №4

_________________
люблю свою девочку:*
Bucinsky ®
Стаж: 7 лет 9 мес.
Сообщений: 242
Ratio: 16,998
Поблагодарили: 11069
100%
Откуда: Керчь
ukraine.gif
Добавлена серия №5

_________________
люблю свою девочку:*
Bucinsky ®
Стаж: 7 лет 9 мес.
Сообщений: 242
Ratio: 16,998
Поблагодарили: 11069
100%
Откуда: Керчь
ukraine.gif
Добавлена серия №6

_________________
люблю свою девочку:*
Bucinsky ®
Стаж: 7 лет 9 мес.
Сообщений: 242
Ratio: 16,998
Поблагодарили: 11069
100%
Откуда: Керчь
ukraine.gif
Добавлена серия №7

_________________
люблю свою девочку:*
Bucinsky ®
Стаж: 7 лет 9 мес.
Сообщений: 242
Ratio: 16,998
Поблагодарили: 11069
100%
Откуда: Керчь
ukraine.gif
Добавлена серия №8

_________________
люблю свою девочку:*
DjCheh
Стаж: 8 лет 11 мес.
Сообщений: 6
Ratio: 3,512
100%
russia.gif
А когда будет 9-я серия?
justloveme89
Стаж: 8 лет
Сообщений: 21
Ratio: 5,647
Поблагодарили: 832
2.54%
Почему не добавляете 9ю?

_________________
Bucinsky ®
Стаж: 7 лет 9 мес.
Сообщений: 242
Ratio: 16,998
Поблагодарили: 11069
100%
Откуда: Керчь
ukraine.gif
Добавлена серия №9

_________________
люблю свою девочку:*
Bucinsky ®
Стаж: 7 лет 9 мес.
Сообщений: 242
Ratio: 16,998
Поблагодарили: 11069
100%
Откуда: Керчь
ukraine.gif
Добавлена серия №10

_________________
люблю свою девочку:*
oleshkosa
Стаж: 7 лет 11 мес.
Сообщений: 19
Ratio: 8,025
2.35%
Откуда: Донбасс
ussr.gif
я в шоке, все релизёры на каникулы зимние свалили чтоли???
Bucinsky ®
Стаж: 7 лет 9 мес.
Сообщений: 242
Ratio: 16,998
Поблагодарили: 11069
100%
Откуда: Керчь
ukraine.gif
Добавлена серия №11

_________________
люблю свою девочку:*
DjSparcO
Стаж: 10 лет 1 мес.
Сообщений: 12
Ratio: 16,352
100%
Откуда: от туда
russia.gif
где 12 серия?
Показать сообщения:   
Начать новую тему   Ответить на тему    Торрент-трекер NNM-Club -> Архив торрентов -> Архив Сериалов, а также Архив Старого многосерийного кино до 90-х Часовой пояс: GMT + 3
Страницы:  1, 2  След.
Страница 1 из 2