Классический форум-трекер
canvas not supported
Нас вместе: 4 094 202

Дневники вампира / The Vampire Diaries (2013) WEB-DLRip [720p] (Сезон 5, Серии 1-22 из 22) LostFilm


 
 
RSS
Начать новую тему   Ответить на тему    Торрент-трекер NNM-Club -> Зарубежные сериалы -> Дневники вампира / Vampire Diaries ; Настоящая кровь / True Blood; Древние / Originals
Автор Сообщение
DriverV ®
Модератор Сериалов
Uploader 500+
Стаж: 9 лет 6 мес.
Сообщений: 15526
Ratio: 24K
Поблагодарили: 671900
100%
nnm-club.gif
Дневники вампира / The Vampire Diaries (2013) WEB-DLRip [720p] (Сезон 5, Серии 1-22 из 22) LostFilm
Страна: США
Год выпуска: 2013
Жанр: ужасы, фэнтези, триллер, драма, детектив

Перевод: Многоголосый закадровый, профессиональный - LostFilm




Режиссер: Маркос Сига, Крис Грисмер, Дж. Миллер Тобин
Актеры: Нина Добрев, Пол Уэсли, Иен Сомерхолдер, Стивен Р. МакКуин, Катерина Грэхэм, Зак Рериг, Кэндис Аккола, Майкл Тревино, Мэттью Дэвис, Джозеф Морган и др.

Описание фильма:
После долгого заточения в склепе, Сайлас наконец-то выбрался на волю и сможет показать свое истинное лицо. Все случившиеся в последнее время обстоятельства, заставляют героев покинуть город и податься по своему пути, но вот смогут ли они так легко отделаться от замыслов судьбы. На удивление многих зрителей, одна из любимых героинь Кетрин предстанет перед нами в новом обличии, ей придется отвыкнуть от мысли, что она пятисотлетний вампир - теперь она просто смертный человек. Будут ли продолжаться такие жаркие отношения между Деймоном и Еленой в новом сезоне, какие новые шокирующие тайны хранит семья Сальваторе-об этом и многом другом в новом 5 сезоне.

Продолжительность: ~00:42:00 серия
Качество видео: WEB-DLRip 720p

Видеокодек: AVC
Формат: MKV
Битрейт видео: ~4000 kb/s
Размер кадра: 1280x720 (16:9)
Аудио Rus: (AC-3, 48,0 kHz, 2 ch, 384 kb/s) - многоголосый закадровый
Аудио Eng: (AC-3, 48,0 kHz, 2 ch, 384 kb/s) - оригинал

Сэмпл

Все раздачи "Дневники вампира / The Vampire Diaries"
Общее
Полное имя : D:\Дневники вампира (Сезон 5) The Vampire Diaries (2013) WEB-DLRip 720p - LostFilm\The.Vampire.Diaries.S05E01.720p.rus.LostFilm.TV.mkv
Формат : Matroska
Версия формата : Version 2
Размер файла : 1,43 Гбайт
Продолжительность : 42 м.
Общий поток : 4811 Кбит/сек
Дата кодирования : UTC 2013-10-05 13:23:36
Программа кодирования : mkvmerge v4.2.0 ('No Talking') сборка от Jul 28 2010 18:38:23
Библиотека кодирования : libebml v1.0.0 + libmatroska v1.0.0

Видео
Идентификатор : 1
Формат : AVC
Формат/Информация : Advanced Video Codec
Профиль формата : High@L3.1
Параметр CABAC формата : Да
Параметр ReFrames формата : 4 кадра
Идентификатор кодека : V_MPEG4/ISO/AVC
Битрейт : 4041 Кбит/сек
Ширина : 1280 пикселей
Высота : 720 пикселей
Соотношение сторон : 16:9
Режим частоты кадров : Переменный
Частота кадров в оригинале : 23,976 кадра/сек
Цветовое пространство : YUV
Субдискретизация насыщенности : 4:2:0
Битовая глубина : 8 бит
Тип развёртки : Прогрессивная
Бит/(Пиксели*Кадры) : 0.183
Библиотека кодирования : x264 core 112 r1834 a51816a
Настройки программы : cabac=1 / ref=1 / deblock=1:0:0 / analyse=0x3:0x113 / me=hex / subme=7 / psy=1 / psy_rd=1.00:0.00 / mixed_ref=0 / me_range=16 / chroma_me=1 / trellis=1 / 8x8dct=1 / cqm=0 / deadzone=21,11 / fast_pskip=1 / chroma_qp_offset=-2 / threads=6 / sliced_threads=0 / nr=0 / decimate=1 / interlaced=0 / constrained_intra=0 / bframes=3 / b_pyramid=2 / b_adapt=1 / b_bias=0 / direct=1 / weightb=1 / open_gop=0 / weightp=2 / keyint=250 / keyint_min=25 / scenecut=40 / intra_refresh=0 / rc_lookahead=40 / rc=2pass / mbtree=1 / bitrate=4041 / ratetol=1.0 / qcomp=0.60 / qpmin=0 / qpmax=51 / qpstep=4 / cplxblur=20.0 / qblur=0.5 / ip_ratio=1.40 / aq=1:1.00
Default : Да
Forced : Нет

Аудио #1
Идентификатор : 2
Формат : AC-3
Формат/Информация : Audio Coding 3
Расширение режима : CM (complete main)
Параметр Endianness формата : Big
Идентификатор кодека : A_AC3
Продолжительность : 42 м.
Вид битрейта : Постоянный
Битрейт : 384 Кбит/сек
Каналы : 2 канала
Расположение каналов : Front: L R
Частота : 48,0 КГц
Битовая глубина : 16 бит
Метод сжатия : С потерями
Размер потока : 117 Мбайт (8%)
Default : Да
Forced : Нет

Аудио #2
Идентификатор : 3
Формат : AC-3
Формат/Информация : Audio Coding 3
Расширение режима : CM (complete main)
Параметр Endianness формата : Big
Идентификатор кодека : A_AC3
Продолжительность : 42 м.
Вид битрейта : Постоянный
Битрейт : 384 Кбит/сек
Каналы : 2 канала
Расположение каналов : Front: L R
Частота : 48,0 КГц
Битовая глубина : 16 бит
Метод сжатия : С потерями
Размер потока : 117 Мбайт (8%)
Default : Нет
Forced : Нет

01. I Know What You Did Last Summer / Я знаю, что ты делал прошлым летом
02. True Lies / Правдивая ложь
03. Original Sin / Первородный грех
04. For Whom the Bell Tolls / По ком звонит колокол
05. Monster's Ball / Бал монстров
06. Handle with Care / Обращаться осторожно
07. Death and the Maiden / Смерть и дева
08. Dead Man on Campus / Мертвец в колледже
09. The Cell / Клетка
10. Fifty Shades of Grayson / 50 оттенков Грэйсона
11. 500 Years of Solitude / 500 лет одиночества
12. The Devil Inside / Дьявол внутри
13. Total Eclipse of the Heart / Полное затмение сердца
14. No Exit / Выхода нет
15. Gone Girl / Пропавшая
16. While You Were Sleeping / Пока ты спала
17. Rescue Me / Спаси меня
18. Resident Evil / Обитель зла
19. Man on Fire / В огне
20. What Lies Beneath / Что скрывает ложь
21. Promised Land / Земля обетованная
22. Home / Дом
Скриншоты:


Время раздачи: 24/7 - круглосуточно (по возможности)
[NNM-Club.me]_Dnevniki vampira (Sezon 5) The Vampire Diaries (2013) WEB-DLRip 720p - LostFilm.torrent
 Торрент: Платиновая раздача  Зарегистрирован
 
Скачать


Примагнититься
 Зарегистрирован:   17 Май 2014 21:53:08
 Размер:   31,4 GB  (
 Рейтинг:   4,6 (Голосов: 231)
 Поблагодарили:   646
 Проверка:   Оформление проверено модератором 17 Май 2014 22:03:18

Лучшие зарубежные сериалы (без рекламы)
Как cкачать  ·  Как раздать  ·  Правильно оформить  ·  Поднять ратио!  
ASR
Стаж: 12 лет 6 мес.
Сообщений: 305
Ratio: 1,572
100%
russia.gif
ну вот и в 720p есть
Crush13
Стаж: 9 лет 4 мес.
Сообщений: 18
Ratio: 7,029
Поблагодарили: 265
100%
Откуда: Kurgan city
russia.gif
Благодарю
Григорий77
Стаж: 9 лет 9 мес.
Сообщений: 18
Ratio: 5,31
100%
witch.png
О спасибо!
ALLys
Стаж: 8 лет 6 мес.
Сообщений: 6
Ratio: 6,649
Раздал: 673 GB
100%
russia.gif
Спасибо за отменную и оперативную раздачу))
А вот если бы ещё сабы rus/eng добавить, раздача стала бы поистине лучшей! Добавьте, плз))
yulyaxa1201
Стаж: 8 лет 1 мес.
Сообщений: 2
Ratio: 1,731
31.28%
russia.gif
А пятая серия скоро будет? =) Очень ждем... :подмигивание: В паршивом переводе уже есть, но не хочу... Буду тут ждать! Спасибо за качественную раздачу! :приветствую:
Mstya
 
Стаж: 10 лет 3 мес.
Сообщений: 124
Ratio: 21,735
Поблагодарили: 1406
100%
Откуда: Москва
russia.gif
ВАмпиры на каникулах?

_________________
OlgaGabi1330
Стаж: 7 лет 2 мес.
Сообщений: 22
Ratio: 0,357
100%
armenia.gif
спасибо вам большое за серии что выкладываете!!! просто молодчики!!! :клево:
подскажите теперь , пожалуйста, когда выход 18 серии?
DriverV ®
Модератор Сериалов
Uploader 500+
Стаж: 9 лет 6 мес.
Сообщений: 15526
Ratio: 24K
Поблагодарили: 671900
100%
nnm-club.gif
Добавлена 22 заключительная серия сезона.
Перекачайте торрент.
Показать сообщения:   
Начать новую тему   Ответить на тему    Торрент-трекер NNM-Club -> Зарубежные сериалы -> Дневники вампира / Vampire Diaries ; Настоящая кровь / True Blood; Древние / Originals Часовой пояс: GMT + 3
Страница 1 из 1