Классический форум-трекер
canvas not supported
Нас вместе: 4 135 459

CCCP. Обратный отсчет. Стахановцы. До и после рекорда (2012) SATRip


 
 
RSS
Начать новую тему   Ответить на тему    Торрент-трекер NNM-Club -> Документалистика и Телепередачи -> Кинолетопись Страны Советской
Автор Сообщение
nnmclub0112 ®
Стаж: 8 лет 10 мес.
Сообщений: 3938
Ratio: 70.426
Поблагодарили: 254048
100%
CCCP. Обратный отсчет. Стахановцы. До и после рекорда (2012) SATRip
Название: CCCP. Обратный отсчет. Стахановцы. До и после рекорда

Режиссер / Телекомпания: ЗАО "Второй национальный канал"
Год выпуска: 2012
Жанр: Документальный

Описание:
Фильмы проекта «Обратный отсчет» рассказывают зрителям о малоизвестных страницах нашей истории. Совместно с белорусскими исследователями, архивистами, историками мы раскрываем о фактах и событиях, о которых в советское время принято было молчать.Фильм посвящен истории Стахановского движения.

Продолжительность: 00:26:52
Видеокодек: XVID
Битрейт видео: 779 Кбит/сек
Размер кадра: 768x576
Качество видео: SATRiр
Аудиокодек: MP3, 2 ch
Битрейт аудио: 96,0 Кбит/сек
Общее
Полное имя : F:\nF\Докум\!5 Кинолетопись страны Советской\СССР. Обратный отсчет\Стахановцы. До и после рекорда\CCCP. Обратный отсчет. Стахановцы. До и после рекорда (2012) SATRip.avi
Формат : AVI
Формат/Информация : Audio Video Interleave
Размер файла : 170 Мбайт
Продолжительность : 26 м.
Общий поток : 885 Кбит/сек
Библиотека кодирования : VirtualDub build 28292/release

Видео
Идентификатор : 0
Формат : MPEG-4 Visual
Профиль формата : Advanced Simple@L5
Параметр BVOP формата : Нет
Параметр QPel формата : Нет
Параметр GMC формата : Без точки перехода
Параметр матрицы формата : Default (H.263)
Идентификатор кодека : XVID
Идентификатор кодека/Подсказка : XviD
Продолжительность : 26 м.
Битрейт : 779 Кбит/сек
Ширина : 768 пикселей
Высота : 576 пикселей
Соотношение сторон : 4:3
Частота кадров : 25,000 кадров/сек
Цветовое пространство : YUV
Субдискретизация насыщенности : 4:2:0
Битовая глубина : 8 бит
Тип развёртки : Прогрессивная
Метод сжатия : С потерями
Бит/(Пиксели*Кадры) : 0.070
Размер потока : 150 Мбайт (88%)
Библиотека кодирования : XviD 1.1.2 (UTC 2006-11-01)

Аудио
Идентификатор : 1
Формат : MPEG Audio
Версия формата : Version 1
Профиль формата : Layer 3
Идентификатор кодека : 55
Идентификатор кодека/Подсказка : MP3
Продолжительность : 26 м.
Вид битрейта : Постоянный
Битрейт : 96,0 Кбит/сек
Каналы : 2 канала
Частота : 44,1 КГц
Метод сжатия : С потерями
Размер потока : 18,5 Мбайт (11%)
Выравнивание : Разделение по промежуткам
Продолжительность промежутка : 40 мс. (1,00 видеокадр)
Время предзагрузки промежутка : 500 мс.
Скриншоты:








Время раздачи: С 09:00 до 23:00

Серия передач "ССCР. Обратный отсчет" на NoNaMe Club
[NNM-Club.me]_CCCP. Obratnyiy otschet. Stahanovtsyi. Do i posle rekorda (2012) SATRip.avi.torrent
 Торрент:   Зарегистрирован
 
Зарегистрируйтесь и скачайте торрент!
13.7 KB

Примагнититься
 Зарегистрирован:   08 Окт 2013 20:30:55
 Размер:   170 MB  (
 Рейтинг:   3.9 (Голосов: 19)
 Поблагодарили:   74
 Проверка:   Оформление проверено модератором 11 Окт 2013 09:40:40
Как cкачать  ·  Как раздать  ·  Правильно оформить  ·  Поднять ратио!  
Показать сообщения:   
Начать новую тему   Ответить на тему    Торрент-трекер NNM-Club -> Документалистика и Телепередачи -> Кинолетопись Страны Советской Часовой пояс: GMT + 3
Страница 1 из 1