Классический форум-трекер
canvas not supported
Нас вместе: 4 077 930

Systems In Blue - Mega Bluebox (2013) 4CD Box Set [FLAC|Lossless]<Euro-Disco>


 
 
RSS
Начать новую тему   Ответить на тему    Торрент-трекер NNM-Club -> Pop -> Disco, Italo-Disco, Euro-Disco, Hi-NRG (Lossless)
Автор Сообщение
poseydonbond ®
Стаж: 8 лет 11 мес.
Сообщений: 1834
Ratio: 1930,236
Раздал: 49,22 TB
Поблагодарили: 39879
100%
Откуда: Владимир Конкретно: Доброе
pirates.png
Systems In Blue - Mega Bluebox (2013) 4CD Box Set

Страна: Germany • Год: 2013 • Жанр: Euro-Disco • Продолжительность: 04:35:36
Лейбл: Spectre Media • Каталожный №: 2087023 • Сканы: Комплект
Кодек: FLAC (image+.cue) • Битрейт: Lossless

Пpодолжительность: 01:17:01
Треклист:
01. System In Blue [3:29]
02. Sexy Ann [3:43]
03. Jeannie Moviestar (Single Version) [3:40]
04. Dr. No (Radio Edit) [3:30]
05. Point Of No Return (Alternative Radio Version) [3:40]
06. Heaven & Hell (Alternative Radio Version) [3:41]
07. 1001 Nights (DJ Moraz Radio Edit) [4:13]
08. Voodoo Queen (Original Version) [4:18]
09. Every Little Thing (Extended Version) [7:03]
10. Magic Mystery (Alternative Extended Version) [6:21]
11. Two Faces (Alternative Radio Version) [3:44]
12. Shangri-La [3:16]
13. Out Of The Blue [3:35]
14. Gambler [3:55]
15. Les Yeux De L'Amour [3:21]
16. Winner (DJ Anders Mix) [3:57]
17. System In Blue (Instrumental Version) [3:28]
18. Sexy Ann (Instrumental Version) [3:44]
19. Voodoo Queen (Karaoke Version) [4:22]

Код:

REM GENRE EuroDisco
REM DATE 2013
REM DISCID 07120C13
REM COMMENT "ExactAudioCopy v1.0b3"
CATALOG 4260180619249
PERFORMER "Systems In Blue"
TITLE "Symphony In Blue (CD1)"
FILE "Systems In Blue - Symphony In Blue (CD1).flac" WAVE
  TRACK 01 AUDIO
    TITLE "System In Blue"
    PERFORMER "Systems In Blue"
    ISRC <cO411192401
    INDEX 01 00:00:00
  TRACK 02 AUDIO
    TITLE "Sexy Ann"
    PERFORMER "Systems In Blue"
    ISRC <cO411192402
    INDEX 01 03:28:48
  TRACK 03 AUDIO
    TITLE "Jeannie Moviestar (Single Version)"
    PERFORMER "Systems In Blue"
    ISRC <cO411192403
    INDEX 01 07:12:03
  TRACK 04 AUDIO
    TITLE "Dr. No (Radio Edit)"
    PERFORMER "Systems In Blue"
    ISRC <cO410855101
    INDEX 01 10:51:51
  TRACK 05 AUDIO
    TITLE "Point Of No Return (Alternative Radio Version)"
    PERFORMER "Systems In Blue"
    ISRC <cO411192405
    INDEX 01 14:21:34
  TRACK 06 AUDIO
    TITLE "Heaven & Hell (Alternative Radio Version)"
    PERFORMER "Systems In Blue"
    ISRC <cO411192406
    INDEX 01 18:01:04
  TRACK 07 AUDIO
    TITLE "1001 Nights (DJ Moraz Radio Edit)"
    PERFORMER "Systems In Blue"
    ISRC <cO410510803
    INDEX 01 21:41:68
  TRACK 08 AUDIO
    TITLE "Voodoo Queen (Original Version)"
    PERFORMER "Systems In Blue"
    ISRC <cO410501215
    INDEX 01 25:54:44
  TRACK 09 AUDIO
    TITLE "Every Little Thing (Extended Version)"
    PERFORMER "Systems In Blue"
    ISRC <cO410501215
    INDEX 01 30:12:66
  TRACK 10 AUDIO
    TITLE "Magic Mystery (Alternative Extended Version)"
    PERFORMER "Systems In Blue"
    ISRC <cO411192410
    INDEX 01 37:16:09
  TRACK 11 AUDIO
    TITLE "Two Faces (Alternative Radio Version)"
    PERFORMER "Systems In Blue"
    ISRC <cO411192411
    INDEX 01 43:37:35
  TRACK 12 AUDIO
    TITLE "Shangri-La"
    PERFORMER "Systems In Blue"
    ISRC <cO411192411
    INDEX 01 47:21:42
  TRACK 13 AUDIO
    TITLE "Out Of The Blue"
    PERFORMER "Systems In Blue"
    ISRC <cO410855212
    INDEX 01 50:38:00
  TRACK 14 AUDIO
    TITLE "Gambler"
    PERFORMER "Systems In Blue"
    ISRC <cO410855204
    INDEX 01 54:13:16
  TRACK 15 AUDIO
    TITLE "Les Yeux De L'Amour"
    PERFORMER "Systems In Blue"
    ISRC <cO410855206
    INDEX 01 58:07:55
  TRACK 16 AUDIO
    TITLE "Winner (DJ Anders Mix)"
    PERFORMER "Systems In Blue"
    ISRC <cO410855206
    INDEX 01 61:29:17
  TRACK 17 AUDIO
    TITLE "System In Blue (Instrumental Version)"
    PERFORMER "Systems In Blue"
    ISRC <cO411192416
    INDEX 01 65:26:52
  TRACK 18 AUDIO
    TITLE "Sexy Ann (Instrumental Version)"
    PERFORMER "Systems In Blue"
    ISRC <cO411192418
    INDEX 01 68:55:01
  TRACK 19 AUDIO
    TITLE "Voodoo Queen (Karaoke Version)"
    PERFORMER "Systems In Blue"
    ISRC <cO411192418
    INDEX 01 72:38:46
Код:

Exact Audio Copy V1.0 beta 3 from 29. August 2011

Отчёт EAC об извлечении, выполненном 26. июня 2013, 23:35

Systems In Blue / Symphony In Blue (CD1)

Дисковод: ASUS    DRW-2014S1T   Adapter: 13  ID: 0

Режим чтения                 : Достоверность
Использование точного потока : Да
Отключение кэша аудио        : Да
Использование указателей C2  : Нет

Коррекция смещения при чтении                     : 6
Способность читать области Lead-in и Lead-out     : Нет
Заполнение пропущенных сэмплов тишиной            : Да
Удаление блоков с тишиной в начале и конце        : Нет
При вычислениях CRC использовались нулевые сэмплы : Да
Интерфейс                                         : Установленный внешний ASPI-интерфейс

Выходной формат : Внутренние WAV-операции
Формат сэмплов  : 44.100 Гц; 16 бит; стерео

TOC извлечённого CD

     Трек |   Старт  | Длительность | Начальный сектор | Конечный сектор
    ---------------------------------------------------------------------
       1  |  0:00.00 |    3:28.48   |           0      |      15647
       2  |  3:28.48 |    3:43.30   |       15648      |      32402
       3  |  7:12.03 |    3:39.48   |       32403      |      48875
       4  | 10:51.51 |    3:29.58   |       48876      |      64608
       5  | 14:21.34 |    3:39.45   |       64609      |      81078
       6  | 18:01.04 |    3:40.64   |       81079      |      97642
       7  | 21:41.68 |    4:12.51   |       97643      |     116593
       8  | 25:54.44 |    4:18.22   |      116594      |     135965
       9  | 30:12.66 |    7:03.18   |      135966      |     167708
      10  | 37:16.09 |    6:21.26   |      167709      |     196309
      11  | 43:37.35 |    3:44.07   |      196310      |     213116
      12  | 47:21.42 |    3:16.33   |      213117      |     227849
      13  | 50:38.00 |    3:35.16   |      227850      |     243990
      14  | 54:13.16 |    3:54.39   |      243991      |     261579
      15  | 58:07.55 |    3:21.37   |      261580      |     276691
      16  | 61:29.17 |    3:57.35   |      276692      |     294501
      17  | 65:26.52 |    3:28.24   |      294502      |     310125
      18  | 68:55.01 |    3:43.45   |      310126      |     326895
      19  | 72:38.46 |    4:22.01   |      326896      |     346546

Характеристики диапазона извлечения и сообщения об ошибках

Выбранный диапазон

     Имя файла Z:\Temp\Systems In Blue - Symphony In Blue (CD1).wav

     Пиковый уровень 98.9 %
     Скорость извлечения 2.4 X
     Качество диапазона 100.0 %
     CRC теста 96FA2F24
     CRC копии 96FA2F24
     Копирование... OK

Ошибок не произошло

AccurateRip: сводка

Трек  1  : извлечено точно (доверие 1)  [97F56A66]  (AR v1)
Трек  2  : извлечено точно (доверие 1)  [B3E77055]  (AR v1)
Трек  3  : извлечено точно (доверие 1)  [1AB3F19E]  (AR v1)
Трек  4  : извлечено точно (доверие 1)  [86B415E3]  (AR v1)
Трек  5  : извлечено точно (доверие 1)  [F81BAED6]  (AR v1)
Трек  6  : извлечено точно (доверие 1)  [5CD245EF]  (AR v1)
Трек  7  : извлечено точно (доверие 1)  [DEE0EE76]  (AR v1)
Трек  8  : извлечено точно (доверие 1)  [9EB2E61A]  (AR v1)
Трек  9  : извлечено точно (доверие 1)  [03A5B67F]  (AR v1)
Трек 10  : извлечено точно (доверие 1)  [DB0EECAC]  (AR v1)
Трек 11  : извлечено точно (доверие 1)  [491123AF]  (AR v1)
Трек 12  : извлечено точно (доверие 1)  [BEA5A609]  (AR v1)
Трек 13  : извлечено точно (доверие 1)  [65B3F1DB]  (AR v1)
Трек 14  : извлечено точно (доверие 1)  [65B5F7FD]  (AR v1)
Трек 15  : извлечено точно (доверие 1)  [0A731252]  (AR v1)
Трек 16  : извлечено точно (доверие 1)  [8D95DEA5]  (AR v1)
Трек 17  : извлечено точно (доверие 1)  [17091781]  (AR v1)
Трек 18  : извлечено точно (доверие 1)  [BDF3967E]  (AR v1)
Трек 19  : извлечено точно (доверие 1)  [E7397001]  (AR v1)

Все треки извлечены точно

Конец отчёта

---- CUETools DB Plugin V2.1.3

[CTDB TOCID: _bKoncnexj7wgUXRZb9efFzb_zk-] found, Submit result: already submitted
[08389bb6] (2/3) Accurately ripped
[50203bf9] (1/3) No match

==== Контрольная сумма отчёта 04D9DFD2EADC58F6B425D7DBB916F5BA82F3D2AA3348E79B37B864CA1D2E5936 ====
Код:

-----------------------

DON'T MODIFY THIS FILE

-----------------------

PERFORMER: auCDtect Task Manager, ver. 1.6.0 RC1 build 1.6.0.1
Copyright (c) 2008-2010 y-soft. All rights reserved
http://y-soft.org

ANALYZER: auCDtect: CD records authenticity detector, version 0.8.2
Copyright (c) 2004 Oleg Berngardt. All rights reserved.
Copyright (c) 2004 Alexander Djourik. All rights reserved.

FILE: Systems In Blue - Symphony In Blue (CD1).flac
  Size: 601933640 Hash: BF3F5BB7684AC4B07CAD61CF5B0FF7A1 Accuracy: -m0
  Conclusion: CDDA 100%
  Signature: 9AA5423B7AAC4EB567B3828A9AE1F0C3D843DCA1
Пpодолжительность: 01:16:49
Тpеклист:
01. Into The Blue - The Hitmix [4:32]
02. Heaven & Hell (Extended Version) [6:04]
03. Jeannie Moviestar (Extended Version) [6:04]
04. Point Of No Return (Maxi Version) [5:59]
05. Shadows Of Love (Maxi Version) [5:19]
06. Heaven & Hell (BlacksMax Remix) [5:54]
07. 1001 Nights (DJ Moraz Slow Romantic Mix) [4:45]
08. Back To Life (Playback Version) [3:22]
09. Summer '97 (Playback Version) [3:15]
10. Gambler (Playback Version) [3:50]
11. Heaven & Hell (Playback Version) [3:34]
12. Two Faces (Playback Version) [3:36]
13. Les Yeux De L'Amour (Playback Version) [3:20]
14. Shadows Of Love (Playback Version) [3:42]
15. Shangri-La (Playback Version) [3:14]
16. Take My Love Again (Playback Version) [3:55]
17. 1001 Nights (DJ Moraz Rock Athmosony Mix) [6:24]

Код:

REM GENRE EuroDisco
REM DATE 2013
REM DISCID F8120011
REM COMMENT "ExactAudioCopy v1.0b3"
CATALOG 4260180619249
PERFORMER "Systems In Blue"
TITLE "Symphony In Blue (CD2) - Bonustracks"
FILE "Systems In Blue - Symphony In Blue (CD2) - Bonustracks.flac" WAVE
  TRACK 01 AUDIO
    TITLE "Into The Blue - The Hitmix"
    PERFORMER "Systems In Blue"
    ISRC <cO411032701
    INDEX 01 00:00:00
  TRACK 02 AUDIO
    TITLE "Heaven & Hell (Extended Version)"
    PERFORMER "Systems In Blue"
    ISRC <cO411192421
    INDEX 01 04:31:47
  TRACK 03 AUDIO
    TITLE "Jeannie Moviestar (Extended Version)"
    PERFORMER "Systems In Blue"
    ISRC <cO411192422
    INDEX 01 10:36:04
  TRACK 04 AUDIO
    TITLE "Point Of No Return (Maxi Version)"
    PERFORMER "Systems In Blue"
    ISRC <cO410501054
    INDEX 01 16:39:50
  TRACK 05 AUDIO
    TITLE "Shadows Of Love (Maxi Version)"
    PERFORMER "Systems In Blue"
    ISRC <cO411192424
    INDEX 01 22:38:26
  TRACK 06 AUDIO
    TITLE "Heaven & Hell (BlacksMax Remix)"
    PERFORMER "Systems In Blue"
    ISRC <cO411192425
    INDEX 01 27:56:70
  TRACK 07 AUDIO
    TITLE "1001 Nights (DJ Moraz Slow Romantic Mix)"
    PERFORMER "Systems In Blue"
    ISRC <cO411192426
    INDEX 01 33:50:69
  TRACK 08 AUDIO
    TITLE "Back To Life (Playback Version)"
    PERFORMER "Systems In Blue"
    ISRC <cO411192427
    INDEX 01 38:36:13
  TRACK 09 AUDIO
    TITLE "Summer '97 (Playback Version)"
    PERFORMER "Systems In Blue"
    ISRC <cO411192428
    INDEX 01 41:58:29
  TRACK 10 AUDIO
    TITLE "Gambler (Playback Version)"
    PERFORMER "Systems In Blue"
    ISRC <cO411192429
    INDEX 01 45:13:05
  TRACK 11 AUDIO
    TITLE "Heaven & Hell (Playback Version)"
    PERFORMER "Systems In Blue"
    ISRC <cO411192430
    INDEX 01 49:03:32
  TRACK 12 AUDIO
    TITLE "Two Faces (Playback Version)"
    PERFORMER "Systems In Blue"
    ISRC <cO411192431
    INDEX 01 52:37:65
  TRACK 13 AUDIO
    TITLE "Les Yeux De L'Amour (Playback Version)"
    PERFORMER "Systems In Blue"
    ISRC <cO411192432
    INDEX 01 56:13:41
  TRACK 14 AUDIO
    TITLE "Shadows Of Love (Playback Version)"
    PERFORMER "Systems In Blue"
    ISRC <cO411192433
    INDEX 01 59:33:13
  TRACK 15 AUDIO
    TITLE "Shangri-La (Playback Version)"
    PERFORMER "Systems In Blue"
    ISRC <cO411192434
    INDEX 01 63:15:02
  TRACK 16 AUDIO
    TITLE "Take My Love Again (Playback Version)"
    PERFORMER "Systems In Blue"
    ISRC <cO411192434
    INDEX 01 66:29:33
  TRACK 17 AUDIO
    TITLE "1001 Nights (DJ Moraz Rock Athmosony Mix)"
    PERFORMER "Systems In Blue"
    ISRC <cO411192436
    INDEX 01 70:24:49
Код:

Exact Audio Copy V1.0 beta 3 from 29. August 2011

Отчёт EAC об извлечении, выполненном 27. июня 2013, 0:13

Systems In Blue / Symphony In Blue (CD2) - Bonustracks

Дисковод: ASUS    DRW-2014S1T   Adapter: 13  ID: 0

Режим чтения                 : Достоверность
Использование точного потока : Да
Отключение кэша аудио        : Да
Использование указателей C2  : Нет

Коррекция смещения при чтении                     : 6
Способность читать области Lead-in и Lead-out     : Нет
Заполнение пропущенных сэмплов тишиной            : Да
Удаление блоков с тишиной в начале и конце        : Нет
При вычислениях CRC использовались нулевые сэмплы : Да
Интерфейс                                         : Установленный внешний ASPI-интерфейс

Выходной формат : Внутренние WAV-операции
Формат сэмплов  : 44.100 Гц; 16 бит; стерео

TOC извлечённого CD

     Трек |   Старт  | Длительность | Начальный сектор | Конечный сектор
    ---------------------------------------------------------------------
       1  |  0:00.00 |    4:31.47   |           0      |      20371
       2  |  4:31.47 |    6:04.32   |       20372      |      47703
       3  | 10:36.04 |    6:03.46   |       47704      |      74974
       4  | 16:39.50 |    5:58.51   |       74975      |     101875
       5  | 22:38.26 |    5:18.44   |      101876      |     125769
       6  | 27:56.70 |    5:53.74   |      125770      |     152318
       7  | 33:50.69 |    4:45.19   |      152319      |     173712
       8  | 38:36.13 |    3:22.16   |      173713      |     188878
       9  | 41:58.29 |    3:14.51   |      188879      |     203479
      10  | 45:13.05 |    3:50.27   |      203480      |     220756
      11  | 49:03.32 |    3:34.33   |      220757      |     236839
      12  | 52:37.65 |    3:35.51   |      236840      |     253015
      13  | 56:13.41 |    3:19.47   |      253016      |     267987
      14  | 59:33.13 |    3:41.64   |      267988      |     284626
      15  | 63:15.02 |    3:14.31   |      284627      |     299207
      16  | 66:29.33 |    3:55.16   |      299208      |     316848
      17  | 70:24.49 |    6:24.18   |      316849      |     345666

Характеристики диапазона извлечения и сообщения об ошибках

Выбранный диапазон

     Имя файла Z:\Temp\Systems In Blue - Symphony In Blue (CD2) - Bonustracks.wav

     Пиковый уровень 98.9 %
     Скорость извлечения 9.6 X
     Качество диапазона 100.0 %
     CRC теста F5E7E6B4
     CRC копии F5E7E6B4
     Копирование... OK

Ошибок не произошло

AccurateRip: сводка

Трек  1  : извлечено точно (доверие 1)  [B8699AA2]  (AR v1)
Трек  2  : извлечено точно (доверие 1)  [1BB6B221]  (AR v1)
Трек  3  : извлечено точно (доверие 1)  [DB09680C]  (AR v1)
Трек  4  : извлечено точно (доверие 1)  [EE88E226]  (AR v1)
Трек  5  : извлечено точно (доверие 1)  [7F37FC08]  (AR v1)
Трек  6  : извлечено точно (доверие 1)  [6A55BA08]  (AR v1)
Трек  7  : извлечено точно (доверие 1)  [AD16E537]  (AR v1)
Трек  8  : извлечено точно (доверие 1)  [0D84E1C2]  (AR v1)
Трек  9  : извлечено точно (доверие 1)  [42B3D651]  (AR v1)
Трек 10  : извлечено точно (доверие 1)  [E6A09DCF]  (AR v1)
Трек 11  : извлечено точно (доверие 1)  [911B279A]  (AR v1)
Трек 12  : извлечено точно (доверие 1)  [3E6F9072]  (AR v1)
Трек 13  : извлечено точно (доверие 1)  [7955952B]  (AR v1)
Трек 14  : извлечено точно (доверие 1)  [7D709120]  (AR v1)
Трек 15  : извлечено точно (доверие 1)  [B11BEDC8]  (AR v1)
Трек 16  : извлечено точно (доверие 1)  [AB15D522]  (AR v1)
Трек 17  : извлечено точно (доверие 1)  [22EDB1C9]  (AR v1)

Все треки извлечены точно

Конец отчёта

---- CUETools DB Plugin V2.1.3

[CTDB TOCID: FYKxi8YMWjutcUWHjy5axCCR_EA-] found, Submit result: already submitted
[769869ea] (3/3) Accurately ripped

==== Контрольная сумма отчёта FB4A7A18761A6340DB64D386A5FDA7875D499DE440C74407C50021012973B822 ====
Код:

-----------------------

DON'T MODIFY THIS FILE

-----------------------

PERFORMER: auCDtect Task Manager, ver. 1.6.0 RC1 build 1.6.0.1
Copyright (c) 2008-2010 y-soft. All rights reserved
http://y-soft.org

ANALYZER: auCDtect: CD records authenticity detector, version 0.8.2
Copyright (c) 2004 Oleg Berngardt. All rights reserved.
Copyright (c) 2004 Alexander Djourik. All rights reserved.

FILE: Systems In Blue - Symphony In Blue (CD2) - Bonustracks.flac
  Size: 589636510 Hash: A03F0FD9D7B9FCC3FDE7A310DDBEE3E6 Accuracy: -m0
  Conclusion: CDDA 100%
  Signature: C6685E9D0CBF1ED9612DF7764018AC60B10C08CA
Пpодолжительность: 01:18:42
Тpеклист:
01. Magic Mystery (Extended Remix) [5:10]
02. Heaven & Hell (Remastered 2009 Version) [3:35]
03. Point Of No Return (MS Project Full Intention RMX) [3:32]
04. Shadows Of Love (Kevin Taschler aka Blackened RMX) [5:19]
05. 1001 Nights (DJ Moraz Rockhouse Mastercut) [5:18]
06. Shagri-La (Remastered 2009 Version) [3:17]
07. 1001 Nights (C.C.F. Party Mix) [4:40]
08. Point Of No Return (Kalvin Madison Club RMX Radio Version) [3:44]
09. Gambler (Remastered 2009 Version) [3:55]
10. Point Of No Return (MS Project Classical RMX) [3:35]
11. Dr. No (Extended Version) [6:03]
12. 1001 Nights (DJ Moraz Long Ethno RMX) [6:31]
13. Winner (Reflex Club Mix) [3:53]
14. Winner (DJ Moraz Long Version) [8:27]
15. One Summernight In Moscow (Patty Ryan ft. Systems In Blue) [3:30]
16. Give A Little Sweet Love (Mark Ashley ft. Systems In Blue) [3:53]
17. Winner (Reflex House Mix) [4:23]

Код:

REM GENRE EuroDisco
REM DATE 2013
REM DISCID EE127211
REM COMMENT "ExactAudioCopy v1.0b3"
CATALOG 4260180610420
PERFORMER "Systems In Blue"
TITLE "Heaven & Hell - The Mixes"
FILE "Systems In Blue - Heaven & Hell - The Mixes.flac" WAVE
  TRACK 01 AUDIO
    TITLE "Magic Mystery (Extended Remix)"
    PERFORMER "Systems In Blue"
    ISRC <cO410904201
    INDEX 01 00:00:00
  TRACK 02 AUDIO
    TITLE "Heaven & Hell (Remastered 2009 Version)"
    PERFORMER "Systems In Blue"
    ISRC <cO410904202
    INDEX 01 05:10:09
  TRACK 03 AUDIO
    TITLE "Point Of No Return (MS Project Full Intention RMX)"
    PERFORMER "Systems In Blue"
    ISRC <cO410612601
    INDEX 01 08:45:21
  TRACK 04 AUDIO
    TITLE "Shadows Of Love (Kevin Taschler aka Blackened RMX)"
    PERFORMER "Systems In Blue"
    ISRC <cO410904204
    INDEX 01 12:17:05
  TRACK 05 AUDIO
    TITLE "1001 Nights (DJ Moraz Rockhouse Mastercut)"
    PERFORMER "Systems In Blue"
    ISRC <cO410904205
    INDEX 01 17:35:45
  TRACK 06 AUDIO
    TITLE "Shagri-La  (Remastered 2009 Version)"
    PERFORMER "Systems In Blue"
    ISRC <cO410904206
    INDEX 01 22:53:22
  TRACK 07 AUDIO
    TITLE "1001 Nights (C.C.F. Party Mix)"
    PERFORMER "Systems In Blue"
    ISRC <cO410904206
    INDEX 01 26:10:29
  TRACK 08 AUDIO
    TITLE "Point Of No Return (Kalvin Madison Club RMX Radio Version)"
    PERFORMER "Systems In Blue"
    ISRC <cO410612603
    INDEX 01 30:50:04
  TRACK 09 AUDIO
    TITLE "Gambler  (Remastered 2009 Version)"
    PERFORMER "Systems In Blue"
    ISRC <cO410904209
    INDEX 01 34:34:00
  TRACK 10 AUDIO
    TITLE "Point Of No Return (MS Project Classical RMX)"
    PERFORMER "Systems In Blue"
    ISRC <cO410904209
    INDEX 01 38:28:69
  TRACK 11 AUDIO
    TITLE "Dr. No (Extended Version)"
    PERFORMER "Systems In Blue"
    ISRC <cO410855101
    INDEX 01 42:03:70
  TRACK 12 AUDIO
    TITLE "1001 Nights (DJ Moraz Long Ethno RMX)"
    PERFORMER "Systems In Blue"
    ISRC <cO410904212
    INDEX 01 48:06:33
  TRACK 13 AUDIO
    TITLE "Winner (Reflex Club Mix)"
    PERFORMER "Systems In Blue"
    ISRC <cO410904213
    INDEX 01 54:37:21
  TRACK 14 AUDIO
    TITLE "Winner (DJ Moraz Long Version)"
    PERFORMER "Systems In Blue"
    ISRC <cO410904214
    INDEX 01 58:30:25
  TRACK 15 AUDIO
    TITLE "One Summernight In Moscow (Patty Ryan ft. Systems In Blue)"
    PERFORMER "Systems In Blue"
    ISRC <cO410904214
    INDEX 01 66:56:68
  TRACK 16 AUDIO
    TITLE "Give A Little Sweet Love (Mark Ashley ft. Systems In Blue)"
    PERFORMER "Systems In Blue"
    ISRC <cO410872815
    INDEX 01 70:26:41
  TRACK 17 AUDIO
    TITLE "Winner (Reflex House Mix)"
    PERFORMER "Systems In Blue"
    ISRC <cO410904217
    INDEX 01 74:19:29
Код:

Exact Audio Copy V1.0 beta 3 from 29. August 2011

Отчёт EAC об извлечении, выполненном 27. июня 2013, 1:13

Systems In Blue / Heaven & Hell - The Mixes

Дисковод: ASUS    DRW-2014S1T   Adapter: 13  ID: 0

Режим чтения                 : Достоверность
Использование точного потока : Да
Отключение кэша аудио        : Да
Использование указателей C2  : Нет

Коррекция смещения при чтении                     : 6
Способность читать области Lead-in и Lead-out     : Нет
Заполнение пропущенных сэмплов тишиной            : Да
Удаление блоков с тишиной в начале и конце        : Нет
При вычислениях CRC использовались нулевые сэмплы : Да
Интерфейс                                         : Установленный внешний ASPI-интерфейс

Выходной формат : Внутренние WAV-операции
Формат сэмплов  : 44.100 Гц; 16 бит; стерео

TOC извлечённого CD

     Трек |   Старт  | Длительность | Начальный сектор | Конечный сектор
    ---------------------------------------------------------------------
       1  |  0:00.00 |    5:10.09   |           0      |      23258
       2  |  5:10.09 |    3:35.12   |       23259      |      39395
       3  |  8:45.21 |    3:31.59   |       39396      |      55279
       4  | 12:17.05 |    5:18.40   |       55280      |      79169
       5  | 17:35.45 |    5:17.52   |       79170      |     102996
       6  | 22:53.22 |    3:17.07   |      102997      |     117778
       7  | 26:10.29 |    4:39.50   |      117779      |     138753
       8  | 30:50.04 |    3:43.71   |      138754      |     155549
       9  | 34:34.00 |    3:54.69   |      155550      |     173168
      10  | 38:28.69 |    3:35.01   |      173169      |     189294
      11  | 42:03.70 |    6:02.38   |      189295      |     216482
      12  | 48:06.33 |    6:30.63   |      216483      |     245795
      13  | 54:37.21 |    3:53.04   |      245796      |     263274
      14  | 58:30.25 |    8:26.43   |      263275      |     301267
      15  | 66:56.68 |    3:29.48   |      301268      |     316990
      16  | 70:26.41 |    3:52.63   |      316991      |     334453
      17  | 74:19.29 |    4:23.08   |      334454      |     354186

Характеристики диапазона извлечения и сообщения об ошибках

Выбранный диапазон

     Имя файла Z:\Temp\Systems In Blue - Heaven & Hell - The Mixes.wav

     Пиковый уровень 100.0 %
     Скорость извлечения 9.7 X
     Качество диапазона 100.0 %
     CRC теста 2CB9FEE6
     CRC копии 2CB9FEE6
     Копирование... OK

Ошибок не произошло

AccurateRip: сводка

Трек  1  отсутствует в базе данных
Трек  2  : извлечено точно (доверие 2)  [CC0CD3E8]  (AR v1)
Трек  3  : извлечено точно (доверие 2)  [8F0B561D]  (AR v1)
Трек  4  : извлечено точно (доверие 2)  [5097D42C]  (AR v1)
Трек  5  : извлечено точно (доверие 2)  [4AABD202]  (AR v1)
Трек  6  : извлечено точно (доверие 2)  [9D7064C7]  (AR v1)
Трек  7  : извлечено точно (доверие 2)  [96FED949]  (AR v1)
Трек  8  : извлечено точно (доверие 2)  [8750C534]  (AR v1)
Трек  9  : извлечено точно (доверие 2)  [7024FAA9]  (AR v1)
Трек 10  : извлечено точно (доверие 2)  [2DD9C5C5]  (AR v1)
Трек 11  : извлечено точно (доверие 2)  [D3A5F710]  (AR v1)
Трек 12  : извлечено точно (доверие 2)  [9A4E20EF]  (AR v1)
Трек 13  : извлечено точно (доверие 2)  [A154F015]  (AR v1)
Трек 14  : извлечено точно (доверие 2)  [AD5B1151]  (AR v1)
Трек 15  : извлечено точно (доверие 2)  [DE8415DD]  (AR v1)
Трек 16  : извлечено точно (доверие 2)  [B68CFBB9]  (AR v1)
Трек 17  : извлечено точно (доверие 2)  [6BD855CF]  (AR v1)

16 трек(и) скопированы точно
 1 трек(и) не содержатся в базе AccurateRip

Некоторые треки не прошли проверку на точность

Конец отчёта

---- CUETools DB Plugin V2.1.3

[CTDB TOCID: RBP2Y_C3CYi307F8AkCwTzV_kFE-] found, Submit result: RBP2Y_C3CYi307F8AkCwTzV_kFE- has been confirmed
[2b533cd6] (3/3) Accurately ripped

==== Контрольная сумма отчёта 58C819CD9AABEAE03EE8F39AED0A440B3184FD9FEE5ED17D8DB57ABADA05A891 ====
Код:

-----------------------

DON'T MODIFY THIS FILE

-----------------------

PERFORMER: auCDtect Task Manager, ver. 1.6.0 RC1 build 1.6.0.1
Copyright (c) 2008-2010 y-soft. All rights reserved
http://y-soft.org

ANALYZER: auCDtect: CD records authenticity detector, version 0.8.2
Copyright (c) 2004 Oleg Berngardt. All rights reserved.
Copyright (c) 2004 Alexander Djourik. All rights reserved.

FILE: Systems In Blue - Heaven & Hell - The Mixes.flac
  Size: 630388664 Hash: 80A2A33DDAD263C8AD89B8A0DEF647A0 Accuracy: -m0
  Conclusion: CDDA 100%
  Signature: 2D1C78C9B9BC0ECDB61FDB4B8EC6DDADB6852A59
Пpодолжительность: 00:43:04
Тpеклист:
01. Dr. No [3:30]
02. Heaven & Hell [3:35]
03. Back To Life [3:26]
04. Gambler [3:55]
05. Key To Freedom [3:47]
06. Les Yeux De L'Amour [3:22]
07. Shadow's Of Love [3:47]
08. Shangri-La [3:17]
09. Take My Love Again [3:55]
10. Summer '97 [3:18]
11. Two Faces [3:38]
12. Out Of The Blue [3:36]

Код:

REM GENRE EuroDisco
REM DATE 2013
REM DISCID 980A180C
REM COMMENT "ExactAudioCopy v1.0b3"
CATALOG 4260010755529
PERFORMER "Systems In Blue"
TITLE "Out Of The Blue"
FILE "Systems In Blue - Out Of The Blue.flac" WAVE
  TRACK 01 AUDIO
    TITLE "Dr. No"
    PERFORMER "Systems In Blue"
    ISRC <cO410855101
    INDEX 01 00:00:00
  TRACK 02 AUDIO
    TITLE "Heaven & Hell"
    PERFORMER "Systems In Blue"
    ISRC <cO410855202
    INDEX 01 03:29:39
  TRACK 03 AUDIO
    TITLE "Back To Life"
    PERFORMER "Systems In Blue"
    ISRC <cO410855203
    INDEX 01 07:04:55
  TRACK 04 AUDIO
    TITLE "Gambler"
    PERFORMER "Systems In Blue"
    ISRC <cO410855204
    INDEX 01 10:30:60
  TRACK 05 AUDIO
    TITLE "Key To Freedom"
    PERFORMER "Systems In Blue"
    ISRC <cO410855205
    INDEX 01 14:25:29
  TRACK 06 AUDIO
    TITLE "Les Yeux De L'Amour"
    PERFORMER "Systems In Blue"
    ISRC <cO410855206
    INDEX 01 18:12:40
  TRACK 07 AUDIO
    TITLE "Shadow's Of Love"
    PERFORMER "Systems In Blue"
    ISRC <cO410855207
    INDEX 01 21:34:17
  TRACK 08 AUDIO
    TITLE "Shangri-La"
    PERFORMER "Systems In Blue"
    ISRC <cO410855207
    INDEX 01 25:21:04
  TRACK 09 AUDIO
    TITLE "Take My Love Again"
    PERFORMER "Systems In Blue"
    ISRC <cO410855209
    INDEX 01 28:37:43
  TRACK 10 AUDIO
    TITLE "Summer '97"
    PERFORMER "Systems In Blue"
    ISRC <cO410855210
    INDEX 01 32:32:68
  TRACK 11 AUDIO
    TITLE "Two Faces"
    PERFORMER "Systems In Blue"
    ISRC <cO410855211
    INDEX 01 35:50:65
  TRACK 12 AUDIO
    TITLE "Out Of The Blue"
    PERFORMER "Systems In Blue"
    ISRC <cO410855212
    INDEX 01 39:28:57
Код:

Exact Audio Copy V1.0 beta 3 from 29. August 2011

Отчёт EAC об извлечении, выполненном 27. июня 2013, 2:09

Systems In Blue / Out Of The Blue

Дисковод: ASUS    DRW-2014S1T   Adapter: 13  ID: 0

Режим чтения                 : Достоверность
Использование точного потока : Да
Отключение кэша аудио        : Да
Использование указателей C2  : Нет

Коррекция смещения при чтении                     : 6
Способность читать области Lead-in и Lead-out     : Нет
Заполнение пропущенных сэмплов тишиной            : Да
Удаление блоков с тишиной в начале и конце        : Нет
При вычислениях CRC использовались нулевые сэмплы : Да
Интерфейс                                         : Установленный внешний ASPI-интерфейс

Выходной формат : Внутренние WAV-операции
Формат сэмплов  : 44.100 Гц; 16 бит; стерео

TOC извлечённого CD

     Трек |   Старт  | Длительность | Начальный сектор | Конечный сектор
    ---------------------------------------------------------------------
       1  |  0:00.00 |    3:29.39   |           0      |      15713
       2  |  3:29.39 |    3:35.16   |       15714      |      31854
       3  |  7:04.55 |    3:26.05   |       31855      |      47309
       4  | 10:30.60 |    3:54.44   |       47310      |      64903
       5  | 14:25.29 |    3:47.11   |       64904      |      81939
       6  | 18:12.40 |    3:21.52   |       81940      |      97066
       7  | 21:34.17 |    3:46.62   |       97067      |     114078
       8  | 25:21.04 |    3:16.39   |      114079      |     128817
       9  | 28:37.43 |    3:55.25   |      128818      |     146467
      10  | 32:32.68 |    3:17.72   |      146468      |     161314
      11  | 35:50.65 |    3:37.67   |      161315      |     177656
      12  | 39:28.57 |    3:35.42   |      177657      |     193823

Характеристики диапазона извлечения и сообщения об ошибках

Выбранный диапазон

     Имя файла Z:\Temp\Systems In Blue - Out Of The Blue.wav

     Пиковый уровень 100.0 %
     Скорость извлечения 5.6 X
     Качество диапазона 100.0 %
     CRC теста DF258A96
     CRC копии DF258A96
     Копирование... OK

Ошибок не произошло

AccurateRip: сводка

Трек  1  : извлечено точно (доверие 3)  [F3590F9A]  (AR v1)
Трек  2  : извлечено точно (доверие 3)  [6D60D5F6]  (AR v1)
Трек  3  : извлечено точно (доверие 3)  [1F8AB7A0]  (AR v1)
Трек  4  : извлечено точно (доверие 3)  [35CB5026]  (AR v1)
Трек  5  : извлечено точно (доверие 3)  [3DC2FC95]  (AR v1)
Трек  6  : извлечено точно (доверие 3)  [1C421EC5]  (AR v1)
Трек  7  : извлечено точно (доверие 3)  [02C3FD2F]  (AR v1)
Трек  8  : извлечено точно (доверие 3)  [D4CB3CFC]  (AR v1)
Трек  9  : извлечено точно (доверие 3)  [68DE1514]  (AR v1)
Трек 10  : извлечено точно (доверие 3)  [0A38890C]  (AR v1)
Трек 11  : извлечено точно (доверие 3)  [099A101A]  (AR v1)
Трек 12  : извлечено точно (доверие 3)  [C05DC6DE]  (AR v1)

Все треки извлечены точно

Конец отчёта

---- CUETools DB Plugin V2.1.3

[CTDB TOCID: AE3NtRzxwZodT03HKeGq15ZzkKg-] found, Submit result: AE3NtRzxwZodT03HKeGq15ZzkKg- has been confirmed
[b4da838c] (4/4) Accurately ripped

==== Контрольная сумма отчёта ABE330BFB5ECC9B82FC941D7034719273E24511D22ADB5F8F35B7405803A8AD9 ====
Код:

-----------------------

DON'T MODIFY THIS FILE

-----------------------

PERFORMER: auCDtect Task Manager, ver. 1.6.0 RC1 build 1.6.0.1
Copyright (c) 2008-2010 y-soft. All rights reserved
http://y-soft.org

ANALYZER: auCDtect: CD records authenticity detector, version 0.8.2
Copyright (c) 2004 Oleg Berngardt. All rights reserved.
Copyright (c) 2004 Alexander Djourik. All rights reserved.

FILE: Systems In Blue - Out Of The Blue.flac
  Size: 343399598 Hash: 6F04F7C011F1575B36D93CF066CBE7D8 Accuracy: -m0
  Conclusion: CDDA 99%
  Signature: FACD195F0A50AE0BAEC757448EE059461092AC77

Discogs
Время раздачи: Круглосуточно (до первых сидов, далее по возможности)


Поглощение/вытеснение
Только с согласия релизера

poseydonbond
[NNM-Club.me]_Systems In Blue - Mega Bluebox (4CD BoxSet) 2013.torrent
 Торрент: Платиновая раздача  Зарегистрирован
 
Скачать


Примагнититься
 Зарегистрирован:   09 Окт 2013 04:58:38
 Размер:   2,17 GB  (
 Рейтинг:   4,8 (Голосов: 62)
 Поблагодарили:   210
 Проверка:   Оформление проверено модератором 09 Окт 2013 05:02:19
Как cкачать  ·  Как раздать  ·  Правильно оформить  ·  Поднять ратио!  
poseydonbond ®
Стаж: 8 лет 11 мес.
Сообщений: 1834
Ratio: 1930,236
Раздал: 49,22 TB
Поблагодарили: 39879
100%
Откуда: Владимир Конкретно: Доброе
pirates.png
Пробнички в МР3 для ознакомления

sop1810
Стаж: 9 лет 11 мес.
Сообщений: 725
Ratio: 3,418
Поблагодарили: 341
100%
Откуда: Моя Родина - СССР.
ussr.gif
Спасибо за пробнички и за раздачу

_________________
Сам себе режиссер...
Vizo
Стаж: 8 лет 6 мес.
Сообщений: 85
Ratio: 2,408
3.83%
macadonia.gif
Как показывает история - множество великих и гениальных композиторов и режиссеров остаются в тени (были на подпевках в далёкие 80е - у Modern Talking,Blue System и только в нулевые годы вышли из тени и обозначились)
mont
Стаж: 9 лет
Сообщений: 16
Ratio: 3,09
100%
Откуда: севастополь
russia.gif
очень даже ничего.диско 80х класс!!!
Sergey.va​dretsky​
Стаж: 8 лет 5 мес.
Сообщений: 244
Ratio: 130,162
100%
Откуда: Москва
russia.gif
poseydonbond ®
Большое Вам спасибо!!!
Лучше просто быть не может...
:респект: :клево: :выпивают: :приветствую:
Показать сообщения:   
Начать новую тему   Ответить на тему    Торрент-трекер NNM-Club -> Pop -> Disco, Italo-Disco, Euro-Disco, Hi-NRG (Lossless) Часовой пояс: GMT + 3
Страница 1 из 1