Классический форум-трекер
canvas not supported
Нас вместе: 4 093 462

CCCP. Обратный отсчёт. В сентябре 39-го (2008) SATRip


 
 
RSS
Начать новую тему   Ответить на тему    Торрент-трекер NNM-Club -> Документалистика и Телепередачи -> Кинолетопись Страны Советской
Автор Сообщение
nnmclub0112 ®
Стаж: 8 лет 1 мес.
Сообщений: 3905
Ratio: 89,7
Поблагодарили: 251439
100%
CCCР. Обратный отсчёт. В сентябре 39-го (2008) SATRip
Название: CCCР. Обратный отсчёт. В сентябре 39-го

Режиссер / Телекомпания: ЗАО "Второй национальный канал"
Год выпуска: 2008
Жанр: Документальный

Описание:
Фильмы проекта «Обратный отсчет» рассказывают зрителям о малоизвестных страницах нашей истории. Совместно с белорусскими исследователями, архивистами, историками мы раскрываем о фактах и событиях, о которых в советское время принято было молчать.Фильм посвящен событиям 1939 года.

Продолжительность: 00:25:40
Видеокодек: XVID
Битрейт видео: 766 Кбит/сек
Размер кадра: 512x288
Качество видео: SATRiр
Аудиокодек: MP3, 2 ch
Битрейт аудио: 96 Кбит/сек
Общее
Полное имя : F:\nF\Докум\!5 Кинолетопись страны Советской\СССР. Обратный отсчет\Обратный отсчёт. В сентябре 39-го\CCCP. Обратный отсчёт. В сентябре 39-го (2008) SATRip.avi
Формат : AVI
Формат/Информация : Audio Video Interleave
Размер файла : 160 Мбайт
Продолжительность : 25 м.
Общий поток : 869 Кбит/сек

Видео
Идентификатор : 0
Формат : MPEG-4 Visual
Профиль формата : Advanced Simple@L5
Параметр BVOP формата : Нет
Параметр QPel формата : Нет
Параметр GMC формата : Без точки перехода
Параметр матрицы формата : Default (H.263)
Идентификатор кодека : XVID
Идентификатор кодека/Подсказка : XviD
Продолжительность : 25 м.
Битрейт : 766 Кбит/сек
Ширина : 512 пикселей
Высота : 288 пикселей
Соотношение сторон : 16:9
Частота кадров : 25,000 кадров/сек
Цветовое пространство : YUV
Субдискретизация насыщенности : 4:2:0
Битовая глубина : 8 бит
Тип развёртки : Прогрессивная
Метод сжатия : С потерями
Бит/(Пиксели*Кадры) : 0.208
Размер потока : 141 Мбайт (88%)
Библиотека кодирования : XviD 1.1.2 (UTC 2006-11-01)

Аудио
Идентификатор : 1
Формат : MPEG Audio
Версия формата : Version 1
Профиль формата : Layer 3
Идентификатор кодека : 55
Идентификатор кодека/Подсказка : MP3
Продолжительность : 25 м.
Вид битрейта : Постоянный
Битрейт : 96,0 Кбит/сек
Каналы : 2 канала
Частота : 44,1 КГц
Метод сжатия : С потерями
Размер потока : 17,6 Мбайт (11%)
Выравнивание : Разделение по промежуткам
Продолжительность промежутка : 80 мс. (2,00 видеокадра)
Скриншоты:





Время раздачи: С 09:00 до 23:00

Серия передач "ССCР. Обратный отсчет" на NoNaMe Club
[NNM-Club.me]_CCCP. Obratnyiy otschet. V sentyabre 39-go (2008) SATRip.avi.torrent
 Торрент:   Зарегистрирован
 
Зарегистрируйтесь и скачайте торрент!
12,8 KB

Примагнититься
 Зарегистрирован:   09 Окт 2013 13:02:36
 Размер:   160 MB  (
 Рейтинг:   3,7 (Голосов: 12)
 Поблагодарили:   66
 Проверка:   Оформление проверено модератором 09 Окт 2013 17:56:23
Как cкачать  ·  Как раздать  ·  Правильно оформить  ·  Поднять ратио!  
Показать сообщения:   
Начать новую тему   Ответить на тему    Торрент-трекер NNM-Club -> Документалистика и Телепередачи -> Кинолетопись Страны Советской Часовой пояс: GMT + 3
Страница 1 из 1